Начать новую тему Ответить на тему
Статистика раздачи
Размер: 483.85 МБ | Добавлен: 26 июн 2020, 17:09 | Скачали: 0
Сидеров: 0  [0 байт/сек]    Личеров: 0  [0 байт/сек]
Пред. тема | След. тема 

Автор
Сообщение

СообщениеДобавлено: 26 июн 2020, 17:09 

Ответить с цитатой 

Re:\Legion (Re-Legion) - State Of Mind
Жанр: future pop
Год выпуска диска: 2010
Производитель диска: (E-Noxe, Germany)
Аудио кодек: FLAC
Тип рипа: image+.cue
Битрейт аудио: lossless
Продолжительность: 1:00:35.05
Треклист:
01. Restless [4:48]
02. The Golden Years [5:19]
03. Persona Non Grata [3:09]
04. Iceangel [4:44]
05. Thank You And Goodbye [4:53]
06. Sick And Destroyed [5:14]
07. Trance:formation [5:47]
08. 8' 21'' From The Sun [5:27]
09. Safe Place [5:47]
10. Lovesong To The Unknown [4:40]
11. Schwarzer Sand [6:21]
12. Farewell [4:25]
Источник: Физический носитель
Код:
Exact Audio Copy V0.99 prebeta 5 from 4. May 2009
Отчёт EAC об извлечении, выполненном 28. июня 2010, 12:50
Re:\Legion / State Of Mind
Дисковод: Optiarc DVD RW AD-7173A   Adapter: 0  ID: 0
Режим чтения                 : Достоверность
Использование точного потока : Да
Отключение кэша аудио        : Да
Использование указателей C2  : Нет
Коррекция смещения при чтении                     : 48
Способность читать области Lead-in и Lead-out     : Нет
Заполнение пропущенных сэмплов тишиной            : Да
Удаление блоков с тишиной в начале и конце        : Нет
При вычислениях CRC использовались нулевые сэмплы : Да
Интерфейс                                         : Установленный внешний ASPI-интерфейс
Выходной формат          : Пользовательский кодировщик
Выбранный битрейт        : 1024 kBit/s
Качество                 : Высокий
Добавление ID3-тэга      : Нет
Утилита сжатия           : C:\Program Files\Exact Audio Copy\Flac\flac.exe
Дополнительные параметры : -6 -V -T "ARTIST=%a" -T "TITLE=%t" -T "ALBUM=%g" -T "DATE=%y" -T "TRACKNUMBER=%n" -T "GENRE=%m" -T "COMMENT=%e" %s -o %d
TOC извлечённого CD
     Трек |   Старт  | Длительность | Начальный сектор | Конечный сектор
    ---------------------------------------------------------------------
       1  |  0:00.00 |    4:47.57   |           0      |      21581
       2  |  4:47.57 |    5:19.00   |       21582      |      45506
       3  | 10:06.57 |    3:08.66   |       45507      |      59672
       4  | 13:15.48 |    4:44.33   |       59673      |      81005
       5  | 18:00.06 |    4:53.19   |       81006      |     102999
       6  | 22:53.25 |    5:14.11   |      103000      |     126560
       7  | 28:07.36 |    5:47.23   |      126561      |     152608
       8  | 33:54.59 |    5:26.41   |      152609      |     177099
       9  | 39:21.25 |    5:47.02   |      177100      |     203126
      10  | 45:08.27 |    4:40.32   |      203127      |     224158
      11  | 49:48.59 |    6:20.62   |      224159      |     252720
      12  | 56:09.46 |    4:25.34   |      252721      |     272629
Характеристики диапазона извлечения и сообщения об ошибках
Выбранный диапазон
     Имя файла H:\СКАЧКА\FLAC\Re  Legion - State Of Mind.wav
     Пиковый уровень 99.9 %
     Качество диапазона 100.0 %
     CRC теста DBB09231
     CRC копии DBB09231
     Копирование... OK
Ошибок не произошло
AccurateRip: сводка
Трек  1  нет в базе данных
Трек  2  нет в базе данных
Трек  3  нет в базе данных
Трек  4  нет в базе данных
Трек  5  нет в базе данных
Трек  6  нет в базе данных
Трек  7  нет в базе данных
Трек  8  нет в базе данных
Трек  9  нет в базе данных
Трек 10  нет в базе данных
Трек 11  нет в базе данных
Трек 12  нет в базе данных
Ни одного трека нет в базе AccurateRip
Конец отчёта
Хочешь скачать, но не можешь из-за отсутствия сидов - пиши в личку!
Правила, инструкции, FAQ!!!
Торрент  Добавлен [26 июн 2020, 17:09] Скачать торрент Магнет ссылка
Скачать торрент
[ Размер 20 КБ / Просмотров 4 ]

Статус
Проверен 
 
Размер  483.85 МБ
Приватный: Нет (DHT включён)
.torrent скачан  0
 


     Отправить личное сообщение
   
Страница 1 из 1
Показать сообщения за:  Поле сортировки  
Начать новую тему Ответить на тему


Сейчас этот форум просматривают: нет зарегистрированных пользователей и гости: 0


Вы не можете начинать темы
Вы не можете отвечать на сообщения
Вы не можете редактировать свои сообщения
Вы не можете удалять свои сообщения
Вы не можете добавлять вложения

Перейти:  
cron