Начать новую тему Ответить на тему
Статистика раздачи
Размер: 902.74 МБ | Добавлен: 26 июн 2020, 17:06 | Скачали: 0
Сидеров: 0  [0 байт/сек]    Личеров: 0  [0 байт/сек]
Пред. тема | След. тема 

Автор
Сообщение

СообщениеДобавлено: 26 июн 2020, 17:06 

Ответить с цитатой 

Enter And Fall / Push Enter And Fall Down

Жанр: Future Pop, EBM
Страна-производитель диска: Germany
Год издания: 2012
Издатель / лейбл: Enter And Fall / emmo.biz
Номер по каталогу: None
Формат издания: 2CD, Album, Super Jewel Case
База данных Discogs: релиз
Страна: Germany
Аудиокодек: FLAC (*.flac)
Тип рипа: image+.cue (secure, test & copy)
Битрейт аудио: lossless
Продолжительность: 1:06:35.44 + 0:48:11.67
Источник: Личная коллекция
Наличие сканов в содержимом раздачи: Да (600 dpi, .jpg)
CD 1 - Push Enter And Fall Down
01. Intro 2:22
02. Push Enter And Fall Down 4:22
03. Back In Time 4:55
04. Lose Control 6:34
05. So Bye Bye 4:26
06. Empire Of Sound 4:02
07. So Much To See 5:21
08. Aufsicht Ost 5:00
09. Running Out (feat. The Apexx) 4:37
10. Beat Conductor 5:14
11. Paradox 5:32
12. A Little Girl 4:11
13. Being Human 5:19
14. Stand Up And Fight (Outro) 4:39
CD 2 - Remixes
01. Running Out (Club Mix) 4:39
02. Trial - Blut Und Eisen (Blutspur Remix by Enter And Fall) 5:45
03. Push Enter And Fall Down (Extended Club Version) 8:47
04. [:SITD:] - Rot (Enter And Fall Remix) 6:17
05. Aufsicht Ost (DocRock Version) 5:00
06. Channel East - Feel Heaven Feel Free (Enter And Fall Remix) 7:21
07. Polaroid Kiss - Pay Your Dues (Enter And Fall Remix) 5:45
08. Treibhaus - Auf In Den Kampf (Enter And Fall Remix) 4:36
Код:
Exact Audio Copy V1.0 beta 3 from 29. August 2011
Отчёт EAC об извлечении, выполненном 3. октября 2012, 10:13
Enter And Fall / Push Enter And Fall Down
Дисковод: hp      DVD-RAM UJ8B1   Adapter: 0  ID: 2
Режим чтения                 : Достоверность
Использование точного потока : Да
Отключение кэша аудио        : Да
Использование указателей C2  : Нет
Коррекция смещения при чтении                     : 6
Способность читать области Lead-in и Lead-out     : Нет
Заполнение пропущенных сэмплов тишиной            : Да
Удаление блоков с тишиной в начале и конце        : Нет
При вычислениях CRC использовались нулевые сэмплы : Да
Интерфейс                                         : Встроенный Win32-интерфейс для Win NT/2000
Выходной формат          : Пользовательский кодировщик
Выбранный битрейт        : 1024 kBit/s
Качество                 : Высокий
Добавление ID3-тега      : Нет
Утилита сжатия           : C:\Program Files (x86)\Exact Audio Copy\FLAC\FLAC.EXE
Дополнительные параметры : -V -8 -T "Date=%year%" -T "Genre=%genre%" %source%
TOC извлечённого CD
     Трек |   Старт  | Длительность | Начальный сектор | Конечный сектор
    ---------------------------------------------------------------------
       1  |  0:00.00 |    2:22.22   |           0      |      10671
       2  |  2:22.22 |    4:22.00   |       10672      |      30321
       3  |  6:44.22 |    4:55.14   |       30322      |      52460
       4  | 11:39.36 |    6:34.00   |       52461      |      82010
       5  | 18:13.36 |    4:26.33   |       82011      |     101993
       6  | 22:39.69 |    4:02.00   |      101994      |     120143
       7  | 26:41.69 |    5:20.72   |      120144      |     144215
       8  | 32:02.66 |    5:00.69   |      144216      |     166784
       9  | 37:03.60 |    4:36.70   |      166785      |     187554
      10  | 41:40.55 |    5:14.02   |      187555      |     211106
      11  | 46:54.57 |    5:32.16   |      211107      |     236022
      12  | 52:26.73 |    4:10.45   |      236023      |     254817
      13  | 56:37.43 |    5:19.00   |      254818      |     278742
      14  | 61:56.43 |    4:39.01   |      278743      |     299668
Характеристики диапазона извлечения и сообщения об ошибках
Выбранный диапазон
     Имя файла C:\Users\HP\Music\Enter And Fall - Push Enter And Fall Down.wav
     Пиковый уровень 98.9 %
     Скорость извлечения 4.5 X
     Качество диапазона 100.0 %
     CRC теста A09F4A4F
     CRC копии A09F4A4F
     Копирование... OK
Ошибок не произошло
AccurateRip: сводка
Трек  1  отсутствует в базе данных
Трек  2  отсутствует в базе данных
Трек  3  отсутствует в базе данных
Трек  4  отсутствует в базе данных
Трек  5  отсутствует в базе данных
Трек  6  отсутствует в базе данных
Трек  7  отсутствует в базе данных
Трек  8  отсутствует в базе данных
Трек  9  отсутствует в базе данных
Трек 10  отсутствует в базе данных
Трек 11  отсутствует в базе данных
Трек 12  отсутствует в базе данных
Трек 13  отсутствует в базе данных
Трек 14  отсутствует в базе данных
Ни одного трека нет в базе AccurateRip
Конец отчёта
==== Контрольная сумма отчёта 1E6CB97E99E875E165F202B39F03CF0B0EC6D38C7198D5D3B58A63F618BDA976 ====
Код:
Exact Audio Copy V1.0 beta 3 from 29. August 2011
Отчёт EAC об извлечении, выполненном 3. октября 2012, 11:11
Enter And Fall / Remixes
Дисковод: hp      DVD-RAM UJ8B1   Adapter: 0  ID: 2
Режим чтения                 : Достоверность
Использование точного потока : Да
Отключение кэша аудио        : Да
Использование указателей C2  : Нет
Коррекция смещения при чтении                     : 6
Способность читать области Lead-in и Lead-out     : Нет
Заполнение пропущенных сэмплов тишиной            : Да
Удаление блоков с тишиной в начале и конце        : Нет
При вычислениях CRC использовались нулевые сэмплы : Да
Интерфейс                                         : Встроенный Win32-интерфейс для Win NT/2000
Выходной формат          : Пользовательский кодировщик
Выбранный битрейт        : 1024 kBit/s
Качество                 : Высокий
Добавление ID3-тега      : Нет
Утилита сжатия           : C:\Program Files (x86)\Exact Audio Copy\FLAC\FLAC.EXE
Дополнительные параметры : -V -8 -T "Date=%year%" -T "Genre=%genre%" %source%
TOC извлечённого CD
     Трек |   Старт  | Длительность | Начальный сектор | Конечный сектор
    ---------------------------------------------------------------------
       1  |  0:00.00 |    4:39.52   |           0      |      20976
       2  |  4:39.52 |    5:45.33   |       20977      |      46884
       3  | 10:25.10 |    8:46.11   |       46885      |      86345
       4  | 19:11.21 |    6:17.49   |       86346      |     114669
       5  | 25:28.70 |    5:00.22   |      114670      |     137191
       6  | 30:29.17 |    7:21.64   |      137192      |     170330
       7  | 37:51.06 |    5:44.66   |      170331      |     196196
       8  | 43:35.72 |    4:35.70   |      196197      |     216891
Характеристики диапазона извлечения и сообщения об ошибках
Выбранный диапазон
     Имя файла C:\Users\HP\Music\Enter And Fall - Remixes.wav
     Пиковый уровень 98.9 %
     Скорость извлечения 4.2 X
     Качество диапазона 100.0 %
     CRC теста 0FA4DEC0
     CRC копии 0FA4DEC0
     Копирование... OK
Ошибок не произошло
AccurateRip: сводка
Трек  1  отсутствует в базе данных
Трек  2  отсутствует в базе данных
Трек  3  отсутствует в базе данных
Трек  4  отсутствует в базе данных
Трек  5  отсутствует в базе данных
Трек  6  отсутствует в базе данных
Трек  7  отсутствует в базе данных
Трек  8  отсутствует в базе данных
Ни одного трека нет в базе AccurateRip
Конец отчёта
==== Контрольная сумма отчёта 51DDC5A059AD2457E5D051096B664D125A49BB601CF167D41244E58A8E19F5B6 ====
Код:
REM GENRE "Future Pop"
REM DATE 2012
REM DISCID B10F9B0E
REM COMMENT "ExactAudioCopy v1.0b3"
PERFORMER "Enter And Fall"
TITLE "Push Enter And Fall Down"
FILE "Enter And Fall - Push Enter And Fall Down.flac" WAVE
  TRACK 01 AUDIO
    TITLE "Intro "
    PERFORMER "Enter And Fall"
    INDEX 01 00:00:00
  TRACK 02 AUDIO
    TITLE "Push Enter And Fall Down "
    PERFORMER "Enter And Fall"
    INDEX 01 02:22:22
  TRACK 03 AUDIO
    TITLE "Back In Time"
    PERFORMER "Enter And Fall"
    INDEX 00 06:42:23
    INDEX 01 06:44:22
  TRACK 04 AUDIO
    TITLE "Lose Control "
    PERFORMER "Enter And Fall"
    INDEX 00 11:37:37
    INDEX 01 11:39:36
  TRACK 05 AUDIO
    TITLE "So Bye Bye "
    PERFORMER "Enter And Fall"
    INDEX 00 18:11:37
    INDEX 01 18:13:36
  TRACK 06 AUDIO
    TITLE "Empire Of Sound"
    PERFORMER "Enter And Fall"
    INDEX 00 22:37:70
    INDEX 01 22:39:69
  TRACK 07 AUDIO
    TITLE "So Much To See"
    PERFORMER "Enter And Fall"
    INDEX 00 26:39:70
    INDEX 01 26:41:69
  TRACK 08 AUDIO
    TITLE "Aufsicht Ost "
    PERFORMER "Enter And Fall"
    INDEX 00 32:00:67
    INDEX 01 32:02:66
  TRACK 09 AUDIO
    TITLE "Running Out (feat. The Apexx) "
    PERFORMER "Enter And Fall"
    INDEX 00 37:01:61
    INDEX 01 37:03:60
  TRACK 10 AUDIO
    TITLE "Beat Conductor "
    PERFORMER "Enter And Fall"
    INDEX 00 41:38:56
    INDEX 01 41:40:55
  TRACK 11 AUDIO
    TITLE "Paradox "
    PERFORMER "Enter And Fall"
    INDEX 00 46:52:58
    INDEX 01 46:54:57
  TRACK 12 AUDIO
    TITLE "A Little Girl"
    PERFORMER "Enter And Fall"
    INDEX 00 52:24:74
    INDEX 01 52:26:73
  TRACK 13 AUDIO
    TITLE "Being Human "
    PERFORMER "Enter And Fall"
    INDEX 00 56:35:44
    INDEX 01 56:37:43
  TRACK 14 AUDIO
    TITLE "Stand Up And Fight (Outro) "
    PERFORMER "Enter And Fall"
    INDEX 00 61:54:44
    INDEX 01 61:56:43
Код:
REM GENRE "Future Pop"
REM DATE 2012
REM DISCID 5A0B4B08
REM COMMENT "ExactAudioCopy v1.0b3"
PERFORMER "Enter And Fall"
TITLE "Remixes"
FILE "Enter And Fall - Remixes.flac" WAVE
  TRACK 01 AUDIO
    TITLE "Running Out (Clubmix) "
    PERFORMER "Enter And Fall"
    INDEX 01 00:00:00
  TRACK 02 AUDIO
    TITLE "Blut Und Eisen (Blutspur Remix by Enter And Fall) "
    PERFORMER "Trial"
    INDEX 00 04:37:53
    INDEX 01 04:39:52
  TRACK 03 AUDIO
    TITLE "Push Enter And Fall Down (Extended Club Version)"
    PERFORMER "Enter And Fall"
    INDEX 00 10:23:11
    INDEX 01 10:25:10
  TRACK 04 AUDIO
    TITLE "Rot (Enter And Fall Remix) "
    PERFORMER "[:SITD:]"
    INDEX 00 19:09:22
    INDEX 01 19:11:21
  TRACK 05 AUDIO
    TITLE "Aufsicht Ost (DocRock Version) "
    PERFORMER "Enter And Fall"
    INDEX 00 25:26:71
    INDEX 01 25:28:70
  TRACK 06 AUDIO
    TITLE "Feel Heaven Feel Free (Enter And Fall Remix)"
    PERFORMER "Channel East"
    INDEX 00 30:27:18
    INDEX 01 30:29:17
  TRACK 07 AUDIO
    TITLE "Pay Your Dues (Enter And Fall Remix) "
    PERFORMER "Polaroid Kiss"
    INDEX 00 37:49:07
    INDEX 01 37:51:06
  TRACK 08 AUDIO
    TITLE "Auf in den Kampf (Enter And Fall Remix)"
    PERFORMER "Treibhaus"
    INDEX 00 43:33:73
    INDEX 01 43:35:72

Правила, инструкции, FAQ!!!
Торрент  Добавлен [26 июн 2020, 17:06] Скачать торрент Магнет ссылка
Скачать торрент
[ Размер 19.77 КБ / Просмотров 4 ]

Статус
Проверен 
 
Размер  902.74 МБ
Приватный: Нет (DHT включён)
.torrent скачан  0
 


     Отправить личное сообщение
   
Страница 1 из 1
Показать сообщения за:  Поле сортировки  
Начать новую тему Ответить на тему


Сейчас этот форум просматривают: нет зарегистрированных пользователей и гости: 0


Вы не можете начинать темы
Вы не можете отвечать на сообщения
Вы не можете редактировать свои сообщения
Вы не можете удалять свои сообщения
Вы не можете добавлять вложения

Перейти:  
cron