Начать новую тему Ответить на тему
Статистика раздачи
Размер: 492.86 МБ | Добавлен: 26 июн 2020, 19:39 | Скачали: 0
Сидеров: 0  [0 байт/сек]    Личеров: 0  [0 байт/сек]
Пред. тема | След. тема 

Автор
Сообщение

СообщениеДобавлено: 26 июн 2020, 19:39 

Ответить с цитатой 

Droom - 128½ Days
Жанр: future pop
Год выпуска диска: 2003
Производитель диска: (A Different Drum, USA)
Аудио кодек: FLAC
Тип рипа: image+.cue
Битрейт аудио: lossless
Продолжительность: 1:10:31.29
Трэклист:
01. Stay! [6:26]
02. A Thousand Ghosts [5:29]
03. Broken Kisses [6:12]
04. Face To Face [6:56]
05. Trust? [5:04]
06. Paint The Sky [5:21]
07. Wedding Day Dream [4:40]
08. Frozen [5:55]
09. Passion Junkie [4:19]
10. Real [4:46]
11. While We Can [5:53]
12. Eyes Like Oceans [4:44]
13. Sugar Crash [4:47]
Код:
Exact Audio Copy V0.99 prebeta 4 from 23. January 2008
Отчёт EAC об извлечении, выполненном 29. марта 2009, 19:25
Droom / 128.5 Days
Дисковод: Optiarc DVD RW AD-7173A   Adapter: 0  ID: 0
Режим чтения                 : Достоверность
Использование точного потока : Да
Отключение кэша аудио        : Да
Использование указателей C2  : Нет
Коррекция смещения при чтении                     : 48
Способность читать области Lead-in и Lead-out     : Нет
Заполнение пропущенных сэмплов тишиной            : Да
Удаление блоков с тишиной в начале и конце        : Нет
При вычислениях CRC использовались нулевые сэмплы : Да
Интерфейс                                         : Встроенный Win32-интерфейс для Win NT/2000
Выходной формат          : Пользовательский кодировщик
Выбранный битрейт        : 1024 kBit/s
Качество                 : Высокий
Добавление ID3-тэга      : Нет
Утилита сжатия           : C:\Program Files\Exact Audio Copy\Flac\flac.exe
Дополнительные параметры : -6 -V -T "ARTIST=%a" -T "TITLE=%t" -T "ALBUM=%g" -T "DATE=%y" -T "TRACKNUMBER=%n" -T "GENRE=%m" -T "COMMENT=%e" %s -o %d
TOC извлечённого CD
     Трек |   Старт  | Длительность | Начальный сектор | Конечный сектор
    ---------------------------------------------------------------------
       1  |  0:00.00 |    6:25.73   |           0      |      28947
       2  |  6:25.73 |    5:28.46   |       28948      |      53593
       3  | 11:54.44 |    6:12.36   |       53594      |      81529
       4  | 18:07.05 |    6:56.00   |       81530      |     112729
       5  | 25:03.05 |    5:03.65   |      112730      |     135519
       6  | 30:06.70 |    5:21.33   |      135520      |     159627
       7  | 35:28.28 |    4:39.54   |      159628      |     180606
       8  | 40:08.07 |    5:54.61   |      180607      |     207217
       9  | 46:02.68 |    4:18.66   |      207218      |     226633
      10  | 50:21.59 |    4:45.46   |      226634      |     248054
      11  | 55:07.30 |    5:52.68   |      248055      |     274522
      12  | 61:00.23 |    4:44.12   |      274523      |     295834
      13  | 65:44.35 |    4:46.69   |      295835      |     317353
Характеристики диапазона извлечения и сообщения об ошибках
Выбранный диапазон
     Имя файла G:\СКАЧКА\FLAC\Droom - 128.5 Days.wav
     Пиковый уровень 100.0 %
     Качество диапазона 100.0 %
     CRC теста CC04C52F
     CRC копии CC04C52F
     Копирование... OK
Ошибок не произошло
AccurateRip: сводка
Трек  1  точное извлечение (доверие 1)  [56225ED6]
Трек  2  точное извлечение (доверие 1)  [6D730D3E]
Трек  3  точное извлечение (доверие 1)  [D8C5335F]
Трек  4  точное извлечение (доверие 1)  [2B0748FD]
Трек  5  точное извлечение (доверие 1)  [CD83B0AD]
Трек  6  точное извлечение (доверие 1)  [170461D6]
Трек  7  точное извлечение (доверие 1)  [44DA04D3]
Трек  8  точное извлечение (доверие 1)  [68A3E62C]
Трек  9  точное извлечение (доверие 1)  [FC0E1DF8]
Трек 10  точное извлечение (доверие 1)  [BD60905C]
Трек 11  точное извлечение (доверие 1)  [4B1B72BE]
Трек 12  точное извлечение (доверие 1)  [B7CCCD1C]
Трек 13  точное извлечение (доверие 1)  [EE5CE3DC]
Все треки извлечены точно
Конец отчёта
Хочешь скачать, но не можешь из-за отсутствия сидов - пиши в личку!
Правила, инструкции, FAQ!!!
Торрент  Добавлен [26 июн 2020, 19:39] Скачать торрент Магнет ссылка
Скачать торрент
[ Размер 20.12 КБ / Просмотров 10 ]

Статус
Проверен 
 
Размер  492.86 МБ
Приватный: Нет (DHT включён)
.torrent скачан  0
 


     Отправить личное сообщение
   
Страница 1 из 1
Показать сообщения за:  Поле сортировки  
Начать новую тему Ответить на тему


Сейчас этот форум просматривают: нет зарегистрированных пользователей и гости: 0


Вы не можете начинать темы
Вы не можете отвечать на сообщения
Вы не можете редактировать свои сообщения
Вы не можете удалять свои сообщения
Вы не можете добавлять вложения

Перейти:  
cron