Начать новую тему Ответить на тему
Статистика раздачи
Размер: 236.43 МБ | Добавлен: 26 июн 2020, 16:55 | Скачали: 0
Сидеров: 0  [0 байт/сек]    Личеров: 0  [0 байт/сек]
Пред. тема | След. тема 

Автор
Сообщение

СообщениеДобавлено: 26 июн 2020, 16:55 

Ответить с цитатой 

Arian1 - Machine Gun [Single]
Жанр: future pop
Год выпуска диска: 2007
Производитель диска: (ЕВМ Media & Entertainment, Peru)
Аудио кодек: FLAC
Тип рипа: image+.cue
Битрейт аудио: lossless
Продолжительность: 28:02.06
Треклист:
1. Machine Gun (The Shooter mix) [6:57]
2. Machine Gun (Final Gun mix) [4:36]
3. Machine Gun (Atomic mix) [3:24]
4. Machine Gun (Robo Destruction mix) [6:32]
5. Machine Gun (Digital Geist remix) [6:33]
Источник: Физический носитель
Код:
Exact Audio Copy V0.99 prebeta 5 from 4. May 2009
Отчёт EAC об извлечении, выполненном 14. августа 2010, 17:10
Arian1 / Machine Gun [Single]
Дисковод: Optiarc DVD RW AD-7173A   Adapter: 0  ID: 0
Режим чтения                 : Достоверность
Использование точного потока : Да
Отключение кэша аудио        : Да
Использование указателей C2  : Нет
Коррекция смещения при чтении                     : 48
Способность читать области Lead-in и Lead-out     : Нет
Заполнение пропущенных сэмплов тишиной            : Да
Удаление блоков с тишиной в начале и конце        : Нет
При вычислениях CRC использовались нулевые сэмплы : Да
Интерфейс                                         : Установленный внешний ASPI-интерфейс
Выходной формат          : Пользовательский кодировщик
Выбранный битрейт        : 1024 kBit/s
Качество                 : Высокий
Добавление ID3-тэга      : Нет
Утилита сжатия           : C:\Program Files\Exact Audio Copy\flac.exe
Дополнительные параметры : -6 -V -T "ARTIST=%a" -T "TITLE=%t" -T "ALBUM=%g" -T "DATE=%y" -T "TRACKNUMBER=%n" -T "GENRE=%m" -T "COMMENT=%e" %s -o %d
TOC извлечённого CD
     Трек |   Старт  | Длительность | Начальный сектор | Конечный сектор
    ---------------------------------------------------------------------
       1  |  0:00.00 |    6:57.01   |           0      |      31275
       2  |  6:57.01 |    4:36.17   |       31276      |      51992
       3  | 11:33.18 |    3:23.62   |       51993      |      67279
       4  | 14:57.05 |    6:32.01   |       67280      |      96680
       5  | 21:29.06 |    6:33.00   |       96681      |     126155
Характеристики диапазона извлечения и сообщения об ошибках
Выбранный диапазон
     Имя файла H:\СКАЧКА\FLAC\1 TORRENT\Arian1 - Machine Gun [Single].wav
     Пиковый уровень 100.0 %
     Качество диапазона 100.0 %
     CRC теста 69452531
     CRC копии 69452531
     Копирование... OK
Ошибок не произошло
AccurateRip: сводка
Трек  1  нет в базе данных
Трек  2  нет в базе данных
Трек  3  нет в базе данных
Трек  4  нет в базе данных
Трек  5  нет в базе данных
Ни одного трека нет в базе AccurateRip
Конец отчёта
Хочешь скачать, но не можешь из-за отсутствия сидов - пиши в личку!
Правила, инструкции, FAQ!!!
Торрент  Добавлен [26 июн 2020, 16:55] Скачать торрент Магнет ссылка
Скачать торрент
[ Размер 19.43 КБ / Просмотров 6 ]

Статус
Проверен 
 
Размер  236.43 МБ
Приватный: Нет (DHT включён)
.torrent скачан  0
 


     Отправить личное сообщение
   
Страница 1 из 1
Показать сообщения за:  Поле сортировки  
Начать новую тему Ответить на тему


Сейчас этот форум просматривают: нет зарегистрированных пользователей и гости: 0


Вы не можете начинать темы
Вы не можете отвечать на сообщения
Вы не можете редактировать свои сообщения
Вы не можете удалять свои сообщения
Вы не можете добавлять вложения

Перейти:  
cron