Начать новую тему Ответить на тему
Статистика раздачи
Размер: 334.1 МБ | Добавлен: 26 июн 2020, 16:50 | Скачали: 0
Сидеров: 0  [0 байт/сек]    Личеров: 0  [0 байт/сек]
Пред. тема | След. тема 

Автор
Сообщение

СообщениеДобавлено: 26 июн 2020, 16:50 

Ответить с цитатой 

Arian1 - Immersion [Global Edition]
Жанр: future pop
Год выпуска диска: 2010
Производитель диска: (Origon Records, Chile)
Аудио кодек: FLAC
Тип рипа: image+.cue
Битрейт аудио: lossless
Продолжительность: 46:33.59
Треклист:
01. Immersion [5:33]
02. Sigma [4:10]
03. Wake Up [4:39]
04. No Time [4:39]
05. Change [4:31]
06. Stompers [4:46]
07. Ionic Body [4:41]
08. U209 [4:10]
09. The End [4:17]
10. 2012 [5:08]
Источник: Физический носитель
Код:
Exact Audio Copy V0.99 prebeta 5 from 4. May 2009
Отчёт EAC об извлечении, выполненном 13. августа 2010, 19:13
Arian1 / Immersion [Global Edition]
Дисковод: Optiarc DVD RW AD-7173A   Adapter: 0  ID: 0
Режим чтения                 : Достоверность
Использование точного потока : Да
Отключение кэша аудио        : Да
Использование указателей C2  : Нет
Коррекция смещения при чтении                     : 48
Способность читать области Lead-in и Lead-out     : Нет
Заполнение пропущенных сэмплов тишиной            : Да
Удаление блоков с тишиной в начале и конце        : Нет
При вычислениях CRC использовались нулевые сэмплы : Да
Интерфейс                                         : Установленный внешний ASPI-интерфейс
Выходной формат          : Пользовательский кодировщик
Выбранный битрейт        : 1024 kBit/s
Качество                 : Высокий
Добавление ID3-тэга      : Нет
Утилита сжатия           : C:\Program Files\Exact Audio Copy\flac.exe
Дополнительные параметры : -6 -V -T "ARTIST=%a" -T "TITLE=%t" -T "ALBUM=%g" -T "DATE=%y" -T "TRACKNUMBER=%n" -T "GENRE=%m" -T "COMMENT=%e" %s -o %d
TOC извлечённого CD
     Трек |   Старт  | Длительность | Начальный сектор | Конечный сектор
    ---------------------------------------------------------------------
       1  |  0:00.00 |    5:33.04   |           0      |      24978
       2  |  5:33.04 |    4:10.03   |       24979      |      43731
       3  |  9:43.07 |    4:39.01   |       43732      |      64657
       4  | 14:22.08 |    4:38.48   |       64658      |      85555
       5  | 19:00.56 |    4:30.70   |       85556      |     105875
       6  | 23:31.51 |    4:46.11   |      105876      |     127336
       7  | 28:17.62 |    4:41.05   |      127337      |     148416
       8  | 32:58.67 |    4:10.17   |      148417      |     167183
       9  | 37:09.09 |    4:16.64   |      167184      |     186447
      10  | 41:25.73 |    5:07.61   |      186448      |     209533
Характеристики диапазона извлечения и сообщения об ошибках
Выбранный диапазон
     Имя файла H:\СКАЧКА\FLAC\1 TORRENT\Arian1 - Immersion [Global Edition].wav
     Пиковый уровень 100.0 %
     Качество диапазона 99.9 %
     CRC теста 52B48413
     CRC копии 52B48413
     Копирование... OK
Ошибок не произошло
AccurateRip: сводка
Трек  1  нет в базе данных
Трек  2  нет в базе данных
Трек  3  нет в базе данных
Трек  4  нет в базе данных
Трек  5  нет в базе данных
Трек  6  нет в базе данных
Трек  7  нет в базе данных
Трек  8  нет в базе данных
Трек  9  нет в базе данных
Трек 10  нет в базе данных
Ни одного трека нет в базе AccurateRip
Конец отчёта
Хочешь скачать, но не можешь из-за отсутствия сидов - пиши в личку!
Правила, инструкции, FAQ!!!
Торрент  Добавлен [26 июн 2020, 16:50] Скачать торрент Магнет ссылка
Скачать торрент
[ Размер 13.93 КБ / Просмотров 5 ]

Статус
Проверен 
 
Размер  334.1 МБ
Приватный: Нет (DHT включён)
.torrent скачан  0
 


     Отправить личное сообщение
   
Страница 1 из 1
Показать сообщения за:  Поле сортировки  
Начать новую тему Ответить на тему


Сейчас этот форум просматривают: нет зарегистрированных пользователей и гости: 0


Вы не можете начинать темы
Вы не можете отвечать на сообщения
Вы не можете редактировать свои сообщения
Вы не можете удалять свои сообщения
Вы не можете добавлять вложения

Перейти:  
cron