Начать новую тему Ответить на тему
Статистика раздачи
Размер: 261.98 МБ | Добавлен: 28 апр 2020, 19:55 | Скачали: 0
Сидеров: 2  [0 байт/сек]    Личеров: 0  [0 байт/сек]
Пред. тема | След. тема 

Автор
Сообщение

СообщениеДобавлено: 28 апр 2020, 19:55 

Ответить с цитатой 

Marc Cohn / The Rainy Season
Жанр: Funk/Soul,Soft Rock,Pop
Страна-производитель диска: Germany
Год издания диска: 1993
Издатель (лейбл): Atlantic
Номер по каталогу: 7567-82491-2
Аудиокодек: FLAC (*.flac)
Тип рипа: image+.cue
Битрейт аудио: lossless
Продолжительность: 45:33.50
Источник (релизер): диск (собственная коллекция)
Наличие сканов в содержимом раздачи: да
Треклист:
1. Walk Through The World
2. Rest For The Weary
3. The Rainy Season
4. Mama's In The Moon
5. Don't Talk To Her At Night
6. Paper Walls
7. From The Station
8. Medicine Man
9. Baby King
10. She's Becoming Gold
11. The Things We've Handed Down
Код:
Exact Audio Copy V1.0 beta 3 from 29. August 2011
Отчёт EAC об извлечении, выполненном 28. декабря 2011, 10:54
Marc Cohn / the rainy season
Дисковод: HL-DT-STDVDRAM GSA-T20N   Adapter: 0  ID: 0
Режим чтения                 : Достоверность
Использование точного потока : Да
Отключение кэша аудио        : Да
Использование указателей C2  : Нет
Коррекция смещения при чтении                     : 667
Способность читать области Lead-in и Lead-out     : Нет
Заполнение пропущенных сэмплов тишиной            : Да
Удаление блоков с тишиной в начале и конце        : Нет
При вычислениях CRC использовались нулевые сэмплы : Да
Интерфейс                                         : Встроенный Win32-интерфейс для Win NT/2000
Выходной формат          : Пользовательский кодировщик
Выбранный битрейт        : 128 kBit/s
Качество                 : Высокий
Добавление ID3-тега      : Нет
Утилита сжатия           : C:\Program Files\EAC_1.0_beta_3_Portable_Multilingual\App\EAC\FLAC\flac.exe
Дополнительные параметры : -6 -V -T "ARTIST=%artist%" -T "TITLE=%title%" -T "ALBUM=%albumtitle%" -T "DATE=%year%" -T "TRACKNUMBER=%tracknr%" -T "GENRE=%genre%" -T "COMMENT=%comment%" %hascover%--picture="%coverfile%"%hascover% %source% -o %dest%
TOC извлечённого CD
     Трек |   Старт  | Длительность | Начальный сектор | Конечный сектор
    ---------------------------------------------------------------------
       1  |  0:00.00 |    4:56.50   |           0      |      22249
       2  |  4:56.50 |    5:07.62   |       22250      |      45336
       3  | 10:04.37 |    4:46.63   |       45337      |      66849
       4  | 14:51.25 |    2:16.70   |       66850      |      77119
       5  | 17:08.20 |    3:03.05   |       77120      |      90849
       6  | 20:11.25 |    4:24.35   |       90850      |     110684
       7  | 24:35.60 |    3:07.02   |      110685      |     124711
       8  | 27:42.62 |    4:29.30   |      124712      |     144916
       9  | 32:12.17 |    3:09.60   |      144917      |     159151
      10  | 35:22.02 |    5:30.48   |      159152      |     183949
      11  | 40:52.50 |    4:41.00   |      183950      |     205024
Характеристики диапазона извлечения и сообщения об ошибках
Выбранный диапазон
     Имя файла C:\MARC COHN 93\Marc Cohn - the rainy season.wav
     Пиковый уровень 100.0 %
     Скорость извлечения 3.9 X
     Качество диапазона 100.0 %
     CRC теста 31E51A09
     CRC копии 31E51A09
     Копирование... OK
Ошибок не произошло
Конец отчёта
==== Контрольная сумма отчёта A2C240E9FB6AAE83D8FD651AA6323DD62A80DB68657AD88FDEE9BA75273CF861 ====
Код:
REM GENRE "soft rock"
REM DATE 1993
REM DISCID 8D0AAD0B
REM COMMENT "ExactAudioCopy v1.0b3"
CATALOG 7567824910203
PERFORMER "Marc Cohn"
TITLE "the rainy season"
FILE "Marc Cohn - the rainy season.flac" WAVE
  TRACK 01 AUDIO
    TITLE "Track01"
    PERFORMER "Marc Cohn"
    INDEX 01 00:00:00
  TRACK 02 AUDIO
    TITLE "Track02"
    PERFORMER "Marc Cohn"
    INDEX 00 04:55:62
    INDEX 01 04:56:50
  TRACK 03 AUDIO
    TITLE "Track03"
    PERFORMER "Marc Cohn"
    INDEX 00 10:03:04
    INDEX 01 10:04:37
  TRACK 04 AUDIO
    TITLE "Track04"
    PERFORMER "Marc Cohn"
    INDEX 00 14:49:14
    INDEX 01 14:51:25
  TRACK 05 AUDIO
    TITLE "Track05"
    PERFORMER "Marc Cohn"
    INDEX 00 17:08:19
    INDEX 01 17:08:20
  TRACK 06 AUDIO
    TITLE "Track06"
    PERFORMER "Marc Cohn"
    INDEX 00 20:10:61
    INDEX 01 20:11:25
  TRACK 07 AUDIO
    TITLE "Track07"
    PERFORMER "Marc Cohn"
    INDEX 00 24:35:26
    INDEX 01 24:35:60
  TRACK 08 AUDIO
    TITLE "Track08"
    PERFORMER "Marc Cohn"
    INDEX 00 27:41:74
    INDEX 01 27:42:62
  TRACK 09 AUDIO
    TITLE "Track09"
    PERFORMER "Marc Cohn"
    INDEX 00 32:11:49
    INDEX 01 32:12:17
  TRACK 10 AUDIO
    TITLE "Track10"
    PERFORMER "Marc Cohn"
    INDEX 00 35:22:01
    INDEX 01 35:22:02
  TRACK 11 AUDIO
    TITLE "Track11"
    PERFORMER "Marc Cohn"
    INDEX 00 40:51:56
    INDEX 01 40:52:50
Марк Коэн - лауреат премии Гремми за диск 1991 года, как "Лучший молодой исполнитель".
Автор и исполнитель задушевных, мелодичных, чуть грустных, песен в стиле софт-рок или голубоглазый соул. Немного напоминает о Питере Габриэле.
Альбом содержит набор очень красивых,задумчиво-созерцательных номеров.
Правила, инструкции, FAQ!!!
Торрент  Добавлен [28 апр 2020, 19:55] Скачать торрент Магнет ссылка
Скачать торрент
[ Размер 3.32 КБ / Просмотров 13 ]

Статус
Проверен 
 
Размер  261.98 МБ
Приватный: Нет (DHT включён)
.torrent скачан  0
 


     Отправить личное сообщение
   
Страница 1 из 1
Показать сообщения за:  Поле сортировки  
Начать новую тему Ответить на тему


Сейчас этот форум просматривают: нет зарегистрированных пользователей и гости: 0


Вы не можете начинать темы
Вы не можете отвечать на сообщения
Вы не можете редактировать свои сообщения
Вы не можете удалять свои сообщения
Вы не можете добавлять вложения

Перейти:  
cron