Начать новую тему Ответить на тему
Статистика раздачи
Размер: 310.92 МБ | Добавлен: 26 мар 2019, 20:10 | Скачали: 0
Сидеров: 0  [0 байт/сек]    Личеров: 0  [0 байт/сек]
Пред. тема | След. тема 

Автор
Сообщение

СообщениеДобавлено: 26 мар 2019, 20:10 

Ответить с цитатой 

Wendy & Lisa / Eroica
Жанр: Funk, Soft Rock
Носитель: CD
Страна-производитель диска (релиза): Japan
Год издания: 1990
Издатель (лейбл): Virgin Japan
Номер по каталогу: VJCP-41
Страна исполнителя (группы): USA
Аудиокодек: FLAC (*.flac)
Тип рипа: image+.cue
Битрейт аудио: lossless
Продолжительность: 49:15
Источник (релизер): gssmg7
Наличие сканов в содержимом раздачи: нет
01. Rainbow Lake (4:43)
W.Melvoin - lead vocals, guitar, bass, oud, bass harmonica, drum programming
L.Coleman - background vocals, hammond b-3, keyboards, harmonica, drum programming
C.Azar - brush snare
C.Ynda - background vocals
S.Melvoin - background vocals
02. Strung Out (4:12)
W.Melvoin - lead vocals, guitar, bass, programming, tamboora, percussion, background vocals
L.Coleman - background vocals, keyboards, acoustic guitar, harmonium, hurdy gurdy
S.Melvoin - background vocals
C.Ynda - background vocals
T.Berg - hurdy gurdy
03. Mother Of Pearl (5:11)
W.Melvoin - lead vocals, guitars, bass, percussion
L.Coleman - background vocals, keyboards, percussion
C.Azar - drums
K.D.Lang - featured vocals
04. Don't Try To Tell Me (4:43)
W.Melvoin - lead vocals, keyboards
L.Coleman - background vocals, drums
(Orchestrated by Michael Melvoin)
05. Crack In The Pavement (3:24)
W.Melvoin - lead vocals, guitar, bass, programming, background vocals, percussion
L.Coleman - background vocals, piano, keyboards, programming
S.Melvoin - background vocals
C.Ynda - background vocals
06. Porch Swing (5:25)
W.Melvoin - lead and background vocals, guitar
L.Coleman - background vocals, keyboards
C.Azar - drums
C.Bruce - guitar
C.Ynda - percussion
S.Melvoin - percussion
A.Kamai - bass
07. Why Wait For Heaven (4:48)
W.Melvoin - lead vocals, guitar, background vocals
L.Coleman - background vocals, keyboards
C.Azar - drums
C.Bruce - guitar, lead guitar
S.Melvoin - percussion, background vocals
C.Ynda - percussion, background vocals
A.Kamai - bass
D.Coleman - electric cello
08. Turn Me Inside Out (4:33)
W.Melvoin - lead and background vocals, guitar, bass
L.Coleman - background vocals, hammond b-3, keyboards
C.Azar - drums
C.Bruce - guitar
C.Ynda - background vocals, percussion
S.Melvoin - background vocals, percussion
09. Skeleton Key (4:11)
W.Melvoin - lead vocals, guitar, bass, programming, background vocals
L.Coleman - background vocals, piano, keyboards
C.Azar - drums
C.Bruce - guitar
C.Ynda - percussion, background vocals
S.Melvoin - percussion, background vocals
E.Leeds - all horns....and arrangement
10. Valley Vista (3:44)
W.Melvoin - lead vocals, guitar, acoustic bass, harmonica, congas
L.Coleman - hammond
S.Melvoin - background vocals
11. Staring At The Sun (4:22)
W.Melvoin - lead and background vocals, guitar, bass, percussion, programming
L.Coleman - background vocals, piano, keyboards, percussion
C.Azar - drums
C.Bruce - guitar
C.Ynda - background vocals, percussion
S.Melvoin - background vocals, percussion
Код:
Exact Audio Copy V1.0 beta 2 from 29. April 2011
EAC extraction logfile from 24. May 2016, 23:06
Wendy & Lisa / Eroica
Used drive  : Optiarc DVD RW AD-5280S   Adapter: 1  ID: 1
Read mode               : Secure
Utilize accurate stream : Yes
Defeat audio cache      : Yes
Make use of C2 pointers : No
Read offset correction                      : 48
Overread into Lead-In and Lead-Out          : No
Fill up missing offset samples with silence : Yes
Delete leading and trailing silent blocks   : No
Null samples used in CRC calculations       : Yes
Used interface                              : Installed external ASPI interface
Used output format              : User Defined Encoder
Selected bitrate                : 128 kBit/s
Quality                         : High
Add ID3 tag                     : No
Command line compressor         : C:\Program Files\FLAC\flac.exe
Additional command line options : -V -8 -T "Genre=%genre%" -T "Artist=%artist%" -T "Title=%title%" -T "Album=%albumtitle%" -T "Date=%year%" -T "Tracknumber=%tracknr%" -T "Comment=%comment%" %source%
TOC of the extracted CD
     Track |   Start  |  Length  | Start sector | End sector
    ---------------------------------------------------------
        1  |  0:00.37 |  4:43.03 |        37    |    21264
        2  |  4:43.40 |  4:12.52 |     21265    |    40216
        3  |  8:56.17 |  5:10.50 |     40217    |    63516
        4  | 14:06.67 |  4:42.60 |     63517    |    84726
        5  | 18:49.52 |  3:24.43 |     84727    |   100069
        6  | 22:14.20 |  5:24.35 |    100070    |   124404
        7  | 27:38.55 |  4:48.22 |    124405    |   146026
        8  | 32:27.02 |  4:32.38 |    146027    |   166464
        9  | 36:59.40 |  4:11.55 |    166465    |   185344
       10  | 41:11.20 |  3:44.07 |    185345    |   202151
       11  | 44:55.27 |  4:21.10 |    202152    |   221736
Range status and errors
Selected range
     Filename C:\Wendy & Lisa (1990) - Eroica\Wendy & Lisa (1990) - Eroica.wav
     Peak level 97.2 %
     Extraction speed 4.1 X
     Range quality 100.0 %
     Test CRC 52794377
     Copy CRC 52794377
     Copy OK
No errors occurred
AccurateRip summary
Track  1  accurately ripped (confidence 2)  [B68B504D]  (AR v2)
Track  2  accurately ripped (confidence 2)  [960C60BC]  (AR v2)
Track  3  accurately ripped (confidence 2)  [9B25B048]  (AR v2)
Track  4  accurately ripped (confidence 2)  [37B1D51A]  (AR v2)
Track  5  accurately ripped (confidence 2)  [388F6E5F]  (AR v2)
Track  6  accurately ripped (confidence 2)  [DE6AF7C8]  (AR v2)
Track  7  accurately ripped (confidence 2)  [1B24E7FE]  (AR v2)
Track  8  accurately ripped (confidence 2)  [DF9C5F1C]  (AR v2)
Track  9  accurately ripped (confidence 2)  [8A79C64C]  (AR v2)
Track 10  accurately ripped (confidence 2)  [E355D97D]  (AR v2)
Track 11  accurately ripped (confidence 2)  [08C063A2]  (AR v2)
All tracks accurately ripped
End of status report
==== Log checksum E014354DC9C85EF93390074D76ADB9519C0ED44EECA8158821349A9B4ADD1746 ====
Код:
REM GENRE Funk
REM DATE 1990
REM DISCID 9B0B8C0B
REM COMMENT "ExactAudioCopy v1.0b2"
CATALOG 0000000000000
PERFORMER "Wendy & Lisa"
TITLE "Eroica"
FILE "Wendy & Lisa (1990) - Eroica.flac" WAVE
  TRACK 01 AUDIO
    TITLE "Rainbow Lake"
    PERFORMER "Wendy & Lisa"
    INDEX 00 00:00:00
    INDEX 01 00:00:37
  TRACK 02 AUDIO
    TITLE "Strung Out"
    PERFORMER "Wendy & Lisa"
    INDEX 01 04:43:40
  TRACK 03 AUDIO
    TITLE "Mother Of Pearl"
    PERFORMER "Wendy & Lisa"
    INDEX 00 08:56:16
    INDEX 01 08:56:17
  TRACK 04 AUDIO
    TITLE "Don't Try To Tell Me"
    PERFORMER "Wendy & Lisa"
    INDEX 00 14:06:66
    INDEX 01 14:06:67
  TRACK 05 AUDIO
    TITLE "Crack In The Pavement"
    PERFORMER "Wendy & Lisa"
    INDEX 01 18:49:52
  TRACK 06 AUDIO
    TITLE "Porch Swing"
    PERFORMER "Wendy & Lisa"
    INDEX 00 22:14:18
    INDEX 01 22:14:20
  TRACK 07 AUDIO
    TITLE "Why Wait For Heaven"
    PERFORMER "Wendy & Lisa"
    INDEX 01 27:38:55
  TRACK 08 AUDIO
    TITLE "Turn Me Inside Out"
    PERFORMER "Wendy & Lisa"
    INDEX 01 32:27:02
  TRACK 09 AUDIO
    TITLE "Skeleton Key"
    PERFORMER "Wendy & Lisa"
    INDEX 00 36:59:39
    INDEX 01 36:59:40
  TRACK 10 AUDIO
    TITLE "Valley Vista"
    PERFORMER "Wendy & Lisa"
    INDEX 01 41:11:20
  TRACK 11 AUDIO
    TITLE "Staring At The Sun"
    PERFORMER "Wendy & Lisa"
    INDEX 01 44:55:27
Wendy Melvoin & Lisa Coleman were childhood friends, both from musical families. They were members of Prince's band The Revolution, and appeared in the movie "Purple Rain". They left the band for a career as a duo in 1987. Wendy's twin sister Susannah was a part of the duo's band. Their brother Jonathan Melvoin was a member of Smashing Pumpkins. More recently, the pair have been writing music for television, having scored the music for the NBC series "Heroes", and Showtime’s "Nurse Jackie".
After the disappointing Fruit at the Bottom, Wendy & Lisa hit a peak with their third album, Eroica. Containing some of the best music of their careers, it also is a perfect synthesis of the dance club beats of Fruit and the well-developed songwriting of their debut. "Staring at the Sun" and "Mother of Pearl" show compositional and arranging complexity that is positively breathtaking. What's more, the musicianship is at a peak, containing some of the best playing the duo has ever done, including a fiery Wendy Melvoin guitar solo in "Turn Me Inside Out." Lyrically, there is more depth as well. "Mother of Pearl," about broken relationships, and "Valley Vista," about a bittersweet childhood memory, have a far darker edge than the lighter material of Fruit. Even the love songs have more of a bite as well. Eroica is a perfect introduction to Wendy & Lisa's formidable talents. ~ victor w. valdivia, allmusic.com
Правила, инструкции, FAQ!!!
Торрент  Добавлен [26 мар 2019, 20:10] Скачать торрент Магнет ссылка
Скачать торрент
[ Размер 12.8 КБ / Просмотров 0 ]

Статус
Проверен 
 
Размер  310.92 МБ
Приватный: Нет (DHT включён)
.torrent скачан  0
 


     Отправить личное сообщение
   
Страница 1 из 1
Показать сообщения за:  Поле сортировки  
Начать новую тему Ответить на тему


Сейчас этот форум просматривают: нет зарегистрированных пользователей и гости: 0


Вы не можете начинать темы
Вы не можете отвечать на сообщения
Вы не можете редактировать свои сообщения
Вы не можете удалять свои сообщения
Вы не можете добавлять вложения

Перейти:  
cron
cron