Начать новую тему Ответить на тему
Статистика раздачи
Размер: 826.37 МБ | Добавлен: 07 янв 2020, 22:01 | Скачали: 1
Сидеров: 9  [0 байт/сек]    Личеров: 3  [0 байт/сек]
Пред. тема | След. тема 

Автор
Сообщение

СообщениеДобавлено: 07 янв 2020, 22:01 

Ответить с цитатой 

Mark Ronson – Uptown Special
Жанр: Funk, R&B
Носитель: LP
Год выпуска: 2015
Страна-производитель: the USA
Лейбл: ℗© 2015 Columbia Records
Страна исполнителя (группы): the UK
Аудио кодек: FLAC
Тип рипа: tracks
Формат записи: 24/96
Формат раздачи: 24/96
Продолжительность: 00:38:33
Треклист:
A1. Uptown’s First Finale (feat. Stevie Wonder & Andrew Wyatt) [01:38]
A2. Summer Breaking (feat. Kevin Parker) [03:07]
A3. Feel Right (feat. Mystikal) [03:42]
A4. Uptown Funk (feat. Bruno Mars) [04:29]
A5. I Can’t Lose (feat. Keyone Starr) [03:16]
A6. Daffodils (feat. Kevin Parker) [04:58]
B1. Crack In the Pearl (feat. Andrew Wyatt) [02:25]
B2. In Case of Fire (feat. Jeff Bhasker) [04:33]
B3. Leaving Los Feliz (feat. Kevin Parker) [04:18]
B4. Heavy and Rolling (feat. Andrew Wyatt) [03:57]
B5. Crack In the Pearl, Pt. II (feat. Stevie Wonder & Jeff Bhasker) [02:16]
Код:
[b]Класс состояния винила[/b]: Неизвестно
[b]Устройство воспроизведения[/b]: Pro-Ject Speed Box S > Pro-ject RM5.1 SE
[b]Головка звукоснимателя[/b]: Sumiko Blue Point II
[b]Предварительный усилитель[/b]: Tascam US-144
[b]АЦП[/b]: Pro-Ject Phono Box SE II
[b]Программа-оцифровщик[/b]: Adobe Audition CS6 24/96
[b]Обработка[/b]: ClickRepair 15
Код:
foobar2000 1.3.8 / Замер динамического диапазона (DR) 1.1.1
Дата отчёта:  2015-09-08 12:28:25
--------------------------------------------------------------------------------
Анализ:   Mark Ronson / Uptown Special
--------------------------------------------------------------------------------
DR         Пики         RMS           Продолжительность трека
--------------------------------------------------------------------------------
DR11      -4.03 дБ   -18.85 дБ      1:38 01-Uptown's First Finale
DR12      -2.69 дБ   -16.81 дБ      3:07 02-Summer Breaking
DR14      -0.96 дБ   -16.30 дБ      3:42 03-Feel Right
DR14      -1.38 дБ   -17.59 дБ      4:29 04-Uptown Funk
DR13      -0.75 дБ   -15.27 дБ      3:16 05-I Can't Lose
DR13       0.00 дБ   -15.46 дБ      4:54 06-Daffodils
DR11      -3.72 дБ   -18.62 дБ      2:25 07-Crack In The Pearl
DR11      -1.18 дБ   -14.93 дБ      4:33 08-In Case of Fire
DR10      -2.29 дБ   -15.46 дБ      4:17 09-Leaving Los Feliz
DR13      -0.83 дБ   -16.42 дБ      3:57 10-Heavy and Rolling
DR12      -2.43 дБ   -16.96 дБ      2:15 11-Crack In The Pearl, Pt. II
--------------------------------------------------------------------------------
Количество треков: 11
Реальные значения DR: DR12
Частота:  96000 Гц
Каналов:  2
Разрядность:   24
Битрейт:  3114 кбит/с
Кодек:   FLAC
================================================================================
Правила, инструкции, FAQ!!!
Торрент  Добавлен [07 янв 2020, 22:01] Скачать торрент Магнет ссылка
Скачать торрент
[ Размер 17.26 КБ / Просмотров 29 ]

Статус
Проверен 
 
Размер  826.37 МБ
Приватный: Нет (DHT включён)
.torrent скачан  1
 


     Отправить личное сообщение
   
Страница 1 из 1
Показать сообщения за:  Поле сортировки  
Начать новую тему Ответить на тему


Сейчас этот форум просматривают: нет зарегистрированных пользователей и гости: 0


Вы не можете начинать темы
Вы не можете отвечать на сообщения
Вы не можете редактировать свои сообщения
Вы не можете удалять свои сообщения
Вы не можете добавлять вложения

Перейти:  
cron