Начать новую тему Ответить на тему
Статистика раздачи
Размер: 280.79 МБ | Добавлен: 01 янв 2020, 23:10 | Скачали: 0
Сидеров: 0  [0 байт/сек]    Личеров: 0  [0 байт/сек]
Пред. тема | След. тема 

Автор
Сообщение

СообщениеДобавлено: 01 янв 2020, 23:10 

Ответить с цитатой 

Jil Aigrot
Words Of Love: The Voice of Edith Piaf

Жанр: French Shanson
Год выпуска диска: 2008
Производитель диска: USA
Аудио кодек: APE
Тип рипа: image+.cue
Битрейт аудио: lossless
Продолжительность: 53:24
Трэклист:
1. Sous le Ciel de Paris (Intrumental) 1:12
2. Les Flonflons du Bal 2:20
3. La Goulante de Pauvre Jean 2:01
4. Y'a Pas de Printemps 2:51
5. Plus Bleu que tes Yeux 3:28
6. C'est a Hambourg 3:06
7. L'Homme au Piano 2:09
8. Mon Vieux Lucien 2:35
9. Mon Dieu 3:25
10. Boulevard du Crime 2:47
11. Le Chemin des Forains 3:05
12. Bravo pour le Clown! 3:26
13. Les Mots D'amour 3:42
14. A Quoi ca sert L'amour? 2:46
15. Je Hais les Dimanche 3:30
16. La Foule 3:09
17. Mon Manege a Moi 2:46
18. Non je ne Regrette Rien 4:05
19. La Vie en Rose (Instrumental)
Рип от JamesBrown, ресурс неизвестен...:-).
Код:
Exact Audio Copy V0.99 prebeta 5 from 4. May 2009
EAC extraction logfile from 22. April 2010, 15:15
Jil Aigrot / Words of Love
Used drive  : PHILIPS DVDR1648P1   Adapter: 2  ID: 0
Read mode               : Secure
Utilize accurate stream : Yes
Defeat audio cache      : Yes
Make use of C2 pointers : No
Read offset correction                      : 618
Overread into Lead-In and Lead-Out          : No
Fill up missing offset samples with silence : Yes
Delete leading and trailing silent blocks   : No
Null samples used in CRC calculations       : Yes
Used interface                              : Native Win32 interface for Win NT & 2000
Used output format : Monkey's Audio Lossless Encoder v3.99 DLL
Sample format      : Fast Lossless Compression
TOC of the extracted CD
     Track |   Start  |  Length  | Start sector | End sector
    ---------------------------------------------------------
        1  |  0:00.00 |  1:12.51 |         0    |     5450
        2  |  1:12.51 |  2:20.67 |      5451    |    16017
        3  |  3:33.43 |  2:01.25 |     16018    |    25117
        4  |  5:34.68 |  2:51.49 |     25118    |    37991
        5  |  8:26.42 |  3:28.68 |     37992    |    53659
        6  | 11:55.35 |  3:06.00 |     53660    |    67609
        7  | 15:01.35 |  2:08.72 |     67610    |    77281
        8  | 17:10.32 |  2:34.72 |     77282    |    88903
        9  | 19:45.29 |  3:25.69 |     88904    |   104347
       10  | 23:11.23 |  2:47.50 |    104348    |   116922
       11  | 25:58.73 |  3:05.26 |    116923    |   130823
       12  | 29:04.24 |  3:25.74 |    130824    |   146272
       13  | 32:30.23 |  3:42.13 |    146273    |   162935
       14  | 36:12.36 |  2:46.29 |    162936    |   175414
       15  | 38:58.65 |  3:30.19 |    175415    |   191183
       16  | 42:29.09 |  3:09.61 |    191184    |   205419
       17  | 45:38.70 |  2:46.55 |    205420    |   217924
       18  | 48:25.50 |  4:05.13 |    217925    |   236312
       19  | 52:30.63 |  0:53.01 |    236313    |   240288
Range status and errors
Selected range
     Filename F:\Jil Aigrot - Words of Love.ape
     Peak level 96.6 %
     Range quality 100.0 %
     Copy CRC 8C9267C3
     Copy OK
No errors occurred
AccurateRip summary
Track  1  accurately ripped (confidence 1)  [22261EEA]
Track  2  accurately ripped (confidence 1)  [EA7F205B]
Track  3  accurately ripped (confidence 1)  [411394EF]
Track  4  accurately ripped (confidence 1)  [CC196028]
Track  5  accurately ripped (confidence 1)  [BA25BBAB]
Track  6  accurately ripped (confidence 1)  [11519FB5]
Track  7  accurately ripped (confidence 1)  [E7ED222F]
Track  8  accurately ripped (confidence 1)  [F20BF7A0]
Track  9  accurately ripped (confidence 1)  [48AFC85A]
Track 10  accurately ripped (confidence 1)  [BBD2E773]
Track 11  accurately ripped (confidence 1)  [3C4F4A8B]
Track 12  accurately ripped (confidence 1)  [D9506E4D]
Track 13  accurately ripped (confidence 1)  [CD9BA790]
Track 14  accurately ripped (confidence 1)  [F8AE620B]
Track 15  accurately ripped (confidence 1)  [BBE86AFA]
Track 16  accurately ripped (confidence 1)  [393240CC]
Track 17  accurately ripped (confidence 1)  [1479C1A3]
Track 18  accurately ripped (confidence 1)  [DD0C163E]
Track 19  accurately ripped (confidence 1)  [71CFE48E]
All tracks accurately ripped
End of status report
Код:
Started at: суббота, 01. 05. 2010. - 17:15.53
1 file found
1 -===- E:\Музыка\Торренты\Jil Aigrot-Words Of Love\Jil Aigrot - Words of Love.ape
  Extracted successfully
  Conclusion: this track is CDDA with probability 100%
  Tempfile successfully deleted.
Finished at: суббота, 01. 05. 2010. - 17:19.56 (operation time: 0:04.02)
Ну.... Кто только не перепевал Эдит Пиаф. А майор Исаев ваще просто был влюблён в её песни... Помните эпизод в Хорхе?
Интересно, понравились ли бы ему её песни в интерпертации Джил Арго...?
Приятных впечатлений!
Правила, инструкции, FAQ!!!
Торрент  Добавлен [01 янв 2020, 23:10] Скачать торрент Магнет ссылка
Скачать торрент
[ Размер 11.66 КБ / Просмотров 1 ]

Статус
Проверен 
 
Размер  280.79 МБ
Приватный: Нет (DHT включён)
.torrent скачан  0
 


     Отправить личное сообщение
   
Страница 1 из 1
Показать сообщения за:  Поле сортировки  
Начать новую тему Ответить на тему


Сейчас этот форум просматривают: нет зарегистрированных пользователей и гости: 0


Вы не можете начинать темы
Вы не можете отвечать на сообщения
Вы не можете редактировать свои сообщения
Вы не можете удалять свои сообщения
Вы не можете добавлять вложения

Перейти:  
cron