Начать новую тему Ответить на тему
Статистика раздачи
Размер: 345.02 МБ | Добавлен: 26 мар 2019, 18:49 | Скачали: 0
Сидеров: 0  [0 байт/сек]    Личеров: 0  [0 байт/сек]
Пред. тема | След. тема 

Автор
Сообщение

СообщениеДобавлено: 26 мар 2019, 18:49 

Ответить с цитатой 

Rover / Rover
Жанр: French pop-rock; French soft-rock
Страна-производитель диска: France
Год издания: 2012
Издатель (лейбл): Cinq 7
Номер по каталогу: 3253292
Страна: Франция
Аудиокодек: WavPack (*.wv)
Тип рипа: tracks+.cue
Битрейт аудио: lossless
Продолжительность: 56:15
Источник (релизер): собственный рип
Наличие сканов в содержимом раздачи: нет
Треклист:
1 Aqualast 4:08
2 Remember 3:00
3 Tonight 3:18
4 Queen Of The Fools 3:26
5 Wedding Bells 5:11
6 Lou 2:50
7 Silver 3:27
8 Champagne 3:54
9 Carry On 4:14
10 Late Night Love 5:08
11 Full Of Grace (Hidden Track: La Roche) 17:41
Код:
This log is created by Rubyripper, version 0.6.2
Website: [url=http://code.google.com/p/rubyripper]http://code.google.com/p/rubyripper[/url]
Cdrom player used to rip:
_NEC DVD_RW ND-3550A 1.52
Cdrom offset used: 0
Ripper used: cdparanoia
Matches required for all chunks: 2
Matches required for erroneous chunks: 2
Codec(s) used:
-other ->  wavpack -w Artist="%a" -w Title="%t" -w Album="%b" -w Year="%y" -w Track="%n" -w Genre="%g" -hhm "%i" -o "%o"
CDDB INFO
Artist = Rover
Album = Rover
Year = 2012
Genre = Pop
Tracks = 11 (11 selected)
01 - Aqualast
02 - Remember
03 - Tonight
04 - Queen of The Fools
05 - Wedding Bells
06 - Lou
07 - Silver
08 - Champagne
09 - Carry On
10 - Late Night Love
11 - Full of Grace
ADVANCED TOC ANALYSIS (with cdrdao)
...please be patient, this may take a while
STATUS
Starting to rip track 1, trial #1 (119 seconds)
Starting to rip track 1, trial #2 (126 seconds)
Analyzing files for mismatching chunks (1 second(s))
Every chunk matched 2 times  [img]https://static.t-ru.org/smiles/icon_smile.gif[/img]
MD5 sum: 9179314e4210c463740e1ab17727231c
Starting to rip track 2, trial #1 (85 seconds)
Starting to rip track 2, trial #2 (70 seconds)
Analyzing files for mismatching chunks (0 second(s))
Every chunk matched 2 times  [img]https://static.t-ru.org/smiles/icon_smile.gif[/img]
MD5 sum: 8f7d593e3275f60ef882f77ad46251d8
Starting to rip track 3, trial #1 (22 seconds)
Starting to rip track 3, trial #2 (22 seconds)
Analyzing files for mismatching chunks (0 second(s))
Every chunk matched 2 times  [img]https://static.t-ru.org/smiles/icon_smile.gif[/img]
MD5 sum: 0786468c40a9fe0a8c5766ba324ee231
Starting to rip track 4, trial #1 (21 seconds)
Starting to rip track 4, trial #2 (21 seconds)
Analyzing files for mismatching chunks (0 second(s))
Every chunk matched 2 times  [img]https://static.t-ru.org/smiles/icon_smile.gif[/img]
MD5 sum: 7a788cf4453f868b7618ac71f53128e1
Starting to rip track 5, trial #1 (30 seconds)
Starting to rip track 5, trial #2 (31 seconds)
Analyzing files for mismatching chunks (0 second(s))
Every chunk matched 2 times  [img]https://static.t-ru.org/smiles/icon_smile.gif[/img]
MD5 sum: e8d791b8d804f5962478c6af7658a60c
Starting to rip track 6, trial #1 (16 seconds)
Starting to rip track 6, trial #2 (16 seconds)
Analyzing files for mismatching chunks (0 second(s))
Every chunk matched 2 times  [img]https://static.t-ru.org/smiles/icon_smile.gif[/img]
MD5 sum: 4032b23cafdd99b6ac184a0d51457cdc
Starting to rip track 7, trial #1 (20 seconds)
Starting to rip track 7, trial #2 (20 seconds)
Analyzing files for mismatching chunks (0 second(s))
Every chunk matched 2 times  [img]https://static.t-ru.org/smiles/icon_smile.gif[/img]
MD5 sum: 69e9673456ab191b4abba2dd6f6cadc8
Starting to rip track 8, trial #1 (20 seconds)
Starting to rip track 8, trial #2 (20 seconds)
Analyzing files for mismatching chunks (0 second(s))
Every chunk matched 2 times  [img]https://static.t-ru.org/smiles/icon_smile.gif[/img]
MD5 sum: 58a1183d0d46e345f7874cdde801a1be
Starting to rip track 9, trial #1 (21 seconds)
Starting to rip track 9, trial #2 (21 seconds)
Analyzing files for mismatching chunks (0 second(s))
Every chunk matched 2 times  [img]https://static.t-ru.org/smiles/icon_smile.gif[/img]
MD5 sum: 6d2a1c938c9a545d493798562a15fb93
Starting to rip track 10, trial #1 (25 seconds)
Starting to rip track 10, trial #2 (25 seconds)
Analyzing files for mismatching chunks (0 second(s))
Every chunk matched 2 times  [img]https://static.t-ru.org/smiles/icon_smile.gif[/img]
MD5 sum: 4742f994c025a5d1ce64edc0a487772b
Starting to rip track 11, trial #1 (78 seconds)
Starting to rip track 11, trial #2 (78 seconds)
Analyzing files for mismatching chunks (4 second(s))
Every chunk matched 2 times  [img]https://static.t-ru.org/smiles/icon_smile.gif[/img]
MD5 sum: df635edb5e01b7c067faca1b5c7776be
RIPPING SUMMARY
All chunks were tried to match at least 2 times.
None of the tracks gave any problems
Код:
REM GENRE Pop
REM DATE 2012
REM COMMENT "Rubyripper 0.6.2"
REM DISCID 7c0d2f0b
REM FREEDB_QUERY "7c0d2f0b 11 150 18742 32257 47071 62537 85866 98611 114156 131682 150710 173785 3377"
PERFORMER "Rover"
TITLE "Rover"
FILE "01 - Aqualast.wv" WAVE
  TRACK 01 AUDIO
    TITLE "Aqualast"
    PERFORMER "Rover"
    INDEX 01 00:00:00
FILE "02 - Remember.wv" WAVE
  TRACK 02 AUDIO
    TITLE "Remember"
    PERFORMER "Rover"
    INDEX 01 00:00:00
FILE "03 - Tonight.wv" WAVE
  TRACK 03 AUDIO
    TITLE "Tonight"
    PERFORMER "Rover"
    INDEX 01 00:00:00
FILE "04 - Queen of The Fools.wv" WAVE
  TRACK 04 AUDIO
    TITLE "Queen of The Fools"
    PERFORMER "Rover"
    INDEX 01 00:00:00
FILE "05 - Wedding Bells.wv" WAVE
  TRACK 05 AUDIO
    TITLE "Wedding Bells"
    PERFORMER "Rover"
    INDEX 01 00:00:00
FILE "06 - Lou.wv" WAVE
  TRACK 06 AUDIO
    TITLE "Lou"
    PERFORMER "Rover"
    INDEX 01 00:00:00
FILE "07 - Silver.wv" WAVE
  TRACK 07 AUDIO
    TITLE "Silver"
    PERFORMER "Rover"
    INDEX 01 00:00:00
FILE "08 - Champagne.wv" WAVE
  TRACK 08 AUDIO
    TITLE "Champagne"
    PERFORMER "Rover"
    INDEX 01 00:00:00
FILE "09 - Carry On.wv" WAVE
  TRACK 09 AUDIO
    TITLE "Carry On"
    PERFORMER "Rover"
    INDEX 01 00:00:00
FILE "10 - Late Night Love.wv" WAVE
  TRACK 10 AUDIO
    TITLE "Late Night Love"
    PERFORMER "Rover"
    INDEX 01 00:00:00
FILE "11 - Full of Grace.wv" WAVE
  TRACK 11 AUDIO
    TITLE "Full of Grace"
    PERFORMER "Rover"
    INDEX 01 00:00:00
Доп. информация: http://www.youtube.com/watch?v=lbvuknyfe3k
Правила, инструкции, FAQ!!!
Торрент  Добавлен [26 мар 2019, 18:49] Скачать торрент Магнет ссылка
Скачать торрент
[ Размер 28.62 КБ / Просмотров 1 ]

Статус
Проверен 
 
Размер  345.02 МБ
Приватный: Нет (DHT включён)
.torrent скачан  0
 


     Отправить личное сообщение
   
Страница 1 из 1
Показать сообщения за:  Поле сортировки  
Начать новую тему Ответить на тему


Сейчас этот форум просматривают: нет зарегистрированных пользователей и гости: 0


Вы не можете начинать темы
Вы не можете отвечать на сообщения
Вы не можете редактировать свои сообщения
Вы не можете удалять свои сообщения
Вы не можете добавлять вложения

Перейти:  
cron