Начать новую тему Ответить на тему
Статистика раздачи
Размер: 214.6 МБ | Добавлен: 01 янв 2020, 22:52 | Скачали: 0
Сидеров: 1  [0 байт/сек]    Личеров: 0  [0 байт/сек]
Пред. тема | След. тема 

Автор
Сообщение

СообщениеДобавлено: 01 янв 2020, 22:52 

Ответить с цитатой 

Michel Sardou - Les Lacs Du Connemara


Жанр: French Pop
Год выпуска диска: 1981
Производитель диска: Germany
Label : UNIVERSAL
Аудио кодек: FLAC
Тип рипа: image+.cue + scans
Битрейт аудио: lossless
Продолжительность: 32:59
Трэклист:
01 Les Lacs Du Connemara
02 L'autre Femme
03 Le Mauvais Homme
04 Préservation
05 Les Mamans Qui S'En Vont
06 Musica
07 Etre une Femme
08 Je Viens Du Sud
09 Les noces de mon père
Код:
Exact Audio Copy V0.99 prebeta 4 from 23. January 2008
Отчёт EAC об извлечении, выполненном 24. сентября 2009, 14:14
Michel Sardou / Les lacs du Connemara
Дисковод: PIONEER DVD-RW  DVR-212   Adapter: 7  ID: 0
Режим чтения                 : Достоверность
Использование точного потока : Да
Отключение кэша аудио        : Да
Использование указателей C2  : Нет
Коррекция смещения при чтении                     : 48
Способность читать области Lead-in и Lead-out     : Нет
Заполнение пропущенных сэмплов тишиной            : Да
Удаление блоков с тишиной в начале и конце        : Нет
При вычислениях CRC использовались нулевые сэмплы : Да
Интерфейс                                         : Установленный внешний ASPI-интерфейс
Выходной формат : Внутренние WAV-операции
Формат сэмплов  : 44.100 Гц; 16 бит; стерео
TOC извлечённого CD
     Трек |   Старт  | Длительность | Начальный сектор | Конечный сектор
    ---------------------------------------------------------------------
       1  |  0:00.00 |    6:05.03   |           0      |      27377
       2  |  6:05.03 |    2:53.05   |       27378      |      40357
       3  |  8:58.08 |    4:47.70   |       40358      |      61952
       4  | 13:46.03 |    4:06.60   |       61953      |      80462
       5  | 17:52.63 |    3:35.57   |       80463      |      96644
       6  | 21:28.45 |    4:07.38   |       96645      |     115207
       7  | 25:36.08 |    4:16.10   |      115208      |     134417
       8  | 29:52.18 |    4:03.60   |      134418      |     152702
       9  | 33:56.03 |    2:06.20   |      152703      |     162172
Характеристики диапазона извлечения и сообщения об ошибках
Выбранный диапазон
     Имя файла B:\MP 3\France Chanson\Michel Sardou\1981 Les lacs du Connemara (FLAC)\Michel Sardou - Les lacs du Connemara.wav
     Пиковый уровень 98.7 %
     Качество диапазона 100.0 %
     CRC копии 94A87CED
     Копирование... OK
Ошибок не произошло
AccurateRip: сводка
Трек  1  нет в базе данных
Трек  2  нет в базе данных
Трек  3  нет в базе данных
Трек  4  нет в базе данных
Трек  5  нет в базе данных
Трек  6  нет в базе данных
Трек  7  нет в базе данных
Трек  8  нет в базе данных
Трек  9  нет в базе данных
Ни одного трека нет в базе AccurateRip
Конец отчёта
Правила, инструкции, FAQ!!!
Торрент  Добавлен [01 янв 2020, 22:52] Скачать торрент Магнет ссылка
Скачать торрент
[ Размер 17.69 КБ / Просмотров 3 ]

Статус
Проверен 
 
Размер  214.6 МБ
Приватный: Нет (DHT включён)
.torrent скачан  0
 


     Отправить личное сообщение
   
Страница 1 из 1
Показать сообщения за:  Поле сортировки  
Начать новую тему Ответить на тему


Сейчас этот форум просматривают: нет зарегистрированных пользователей и гости: 0


Вы не можете начинать темы
Вы не можете отвечать на сообщения
Вы не можете редактировать свои сообщения
Вы не можете удалять свои сообщения
Вы не можете добавлять вложения

Перейти:  
cron