Начать новую тему Ответить на тему
Статистика раздачи
Размер: 319.29 МБ | Добавлен: 01 янв 2020, 22:56 | Скачали: 0
Сидеров: 0  [0 байт/сек]    Личеров: 0  [0 байт/сек]
Пред. тема | След. тема 

Автор
Сообщение

СообщениеДобавлено: 01 янв 2020, 22:56 

Ответить с цитатой 

Michel Sardou / Etre Une Femme
Жанр: French Pop
Носитель: CD
Номер диска в каталоге: 274 611 0
Страна-производитель диска (релиза): France
Год издания: 2010
Издатель (лейбл): Mercury (Universal Music France)
Страна исполнителя (группы): France
Аудиокодек: FLAC (*.flac)
Тип рипа: tracks+.cue
Битрейт аудио: lossless
Продолжительность: 00:40:42
Источник (релизер): собственный рип с оригинального CD
Наличие сканов в содержимом раздачи: да
Треклист:
1. Et puis après 3:37
2. Être une femme 2010 3:31
3. Voler (en duo avec Céline Dion) 3:45
4. Chacun sa vérité 3:12
5. Elle vit toute seule 3:24
6. Ça viendra forcément 3:29
7. Rebelle 2:51
8. Une corde pour se noyer 3:33
9. Soleil ou pas 3:32
10. L'Humaine différence 3:31
11. Les Nuits blanches à Rio 3:14
12. Lequel sommes-nous ? 2:48
Код:
Exact Audio Copy V1.0 beta 3 from 29. August 2011
Отчёт EAC об извлечении, выполненном 6. января 2019, 16:41
Michel Sardou / Etre une Femme 2010
Дисковод: Optiarc DVD RW AD-7200A   Adapter: 4  ID: 0
Режим чтения                 : Достоверность
Использование точного потока : Да
Отключение кэша аудио        : Да
Использование указателей C2  : Нет
Коррекция смещения при чтении                     : 48
Способность читать области Lead-in и Lead-out     : Нет
Заполнение пропущенных сэмплов тишиной            : Да
Удаление блоков с тишиной в начале и конце        : Нет
При вычислениях CRC использовались нулевые сэмплы : Да
Интерфейс                                         : Встроенный Win32-интерфейс для Win NT/2000
Обработка зазоров                                 : Добавлено к предыдущему треку
Выходной формат          : Пользовательский кодировщик
Выбранный битрейт        : 128 kBit/s
Качество                 : Высокий
Добавление ID3-тега      : Нет
Утилита сжатия           : C:\Program Files\Exact Audio Copy\Flac\flac.exe
Дополнительные параметры : -V -8 -T "Genre=%genre%" -T "Artist=%artist%" -T "Title=%title%" -T "Album=%albumtitle%" -T "Date=%year%" -T "Tracknumber=%tracknr%" -T "Comment=%comment%" %source%
TOC извлечённого CD
     Трек |   Старт  | Длительность | Начальный сектор | Конечный сектор
    ---------------------------------------------------------------------
       1  |  0:00.00 |    3:40.03   |           0      |      16502
       2  |  3:40.03 |    3:32.07   |       16503      |      32409
       3  |  7:12.10 |    3:46.67   |       32410      |      49426
       4  | 10:59.02 |    3:13.46   |       49427      |      63947
       5  | 14:12.48 |    3:24.62   |       63948      |      79309
       6  | 17:37.35 |    3:31.35   |       79310      |      95169
       7  | 21:08.70 |    2:50.52   |       95170      |     107971
       8  | 23:59.47 |    3:32.65   |      107972      |     123936
       9  | 27:32.37 |    3:33.12   |      123937      |     139923
      10  | 31:05.49 |    3:30.53   |      139924      |     155726
      11  | 34:36.27 |    3:15.53   |      155727      |     170404
      12  | 37:52.05 |    2:50.50   |      170405      |     183204
      13  | 43:14.55 |    6:38.34   |      194605      |     224488
Трек  1
     Имя файла D:\MUSIC\FLAC\01 Et puis après.wav
     Длина предзазора  0:00:02.00
     Пиковый уровень 98.8 %
     Скорость извлечения 2.3 X
     Качество трека 100.0 %
     CRC теста 37875FAD
     CRC копии 37875FAD
     Точное извлечение (достоверность 5)  [BA0495A5]  (AR v2)
     Копирование... OK
Трек  2
     Имя файла D:\MUSIC\FLAC\02 Être une femme (2010).wav
     Длина предзазора  0:00:01.71
     Пиковый уровень 79.3 %
     Скорость извлечения 2.5 X
     Качество трека 100.0 %
     CRC теста 512EF8F5
     CRC копии 512EF8F5
     Точное извлечение (достоверность 4)  [FE99C615]  (AR v2)
     Копирование... OK
Трек  3
     Имя файла D:\MUSIC\FLAC\03 Voler (en duo avec Céline Dion).wav
     Длина предзазора  0:00:01.56
     Пиковый уровень 98.8 %
     Скорость извлечения 2.7 X
     Качество трека 100.0 %
     CRC теста 519F5F26
     CRC копии 519F5F26
     Точное извлечение (достоверность 5)  [3297AF55]  (AR v2)
     Копирование... OK
Трек  4
     Имя файла D:\MUSIC\FLAC\04 Chacun sa vérité.wav
     Длина предзазора  0:00:01.35
     Пиковый уровень 98.8 %
     Скорость извлечения 2.9 X
     Качество трека 100.0 %
     CRC теста 321EE220
     CRC копии 321EE220
     Точное извлечение (достоверность 4)  [4C12F4D0]  (AR v2)
     Копирование... OK
Трек  5
     Имя файла D:\MUSIC\FLAC\05 Elle vit toute seule.wav
     Длина предзазора  0:00:01.73
     Пиковый уровень 98.8 %
     Скорость извлечения 2.7 X
     Качество трека 99.9 %
     CRC теста 038A7928
     CRC копии 038A7928
     Точное извлечение (достоверность 5)  [72CBBFD2]  (AR v2)
     Копирование... OK
Трек  6
     Имя файла D:\MUSIC\FLAC\06 Ça viendra forcément.wav
     Длина предзазора  0:00:01.57
     Пиковый уровень 98.8 %
     Скорость извлечения 2.8 X
     Качество трека 99.9 %
     CRC теста 834211A9
     CRC копии 834211A9
     Точное извлечение (достоверность 5)  [8F5BDD6A]  (AR v2)
     Копирование... OK
Трек  7
     Имя файла D:\MUSIC\FLAC\07 Rebelle.wav
     Длина предзазора  0:00:02.31
     Пиковый уровень 98.8 %
     Скорость извлечения 3.3 X
     Качество трека 100.0 %
     CRC теста 06A5AC8C
     CRC копии 06A5AC8C
     Точное извлечение (достоверность 5)  [A344DC1C]  (AR v2)
     Копирование... OK
Трек  8
     Имя файла D:\MUSIC\FLAC\08 Une corde pour se noyer.wav
     Длина предзазора  0:00:00.27
     Пиковый уровень 98.8 %
     Скорость извлечения 3.5 X
     Качество трека 100.0 %
     CRC теста 6FC112ED
     CRC копии 6FC112ED
     Точное извлечение (достоверность 5)  [D5F08253]  (AR v2)
     Копирование... OK
Трек  9
     Имя файла D:\MUSIC\FLAC\09 Soleil ou pas.wav
     Пиковый уровень 98.8 %
     Скорость извлечения 3.6 X
     Качество трека 100.0 %
     CRC теста 285D5E9C
     CRC копии 285D5E9C
     Точное извлечение (достоверность 4)  [BC28FB96]  (AR v2)
     Копирование... OK
Трек 10
     Имя файла D:\MUSIC\FLAC\10 L'humaine différence.wav
     Длина предзазора  0:00:01.08
     Пиковый уровень 98.8 %
     Скорость извлечения 3.8 X
     Качество трека 100.0 %
     CRC теста 94F87A9B
     CRC копии 94F87A9B
     Точное извлечение (достоверность 5)  [4D5DADCC]  (AR v2)
     Копирование... OK
Трек 11
     Имя файла D:\MUSIC\FLAC\11 Nuits Blanches à Rio.wav
     Пиковый уровень 98.8 %
     Скорость извлечения 3.9 X
     Качество трека 100.0 %
     CRC теста 22D70E12
     CRC копии 22D70E12
     Точное извлечение (достоверность 4)  [FE4B0693]  (AR v2)
     Копирование... OK
Трек 12
     Имя файла D:\MUSIC\FLAC\12 Lequel sommes-nous.wav
     Длина предзазора  0:00:01.58
     Пиковый уровень 98.8 %
     Скорость извлечения 3.3 X
     Качество трека 99.9 %
     CRC теста A0739D75
     CRC копии A0739D75
     Точное извлечение (достоверность 4)  [83A7A044]  (AR v2)
     Копирование... OK
Все треки извлечены точно
Ошибок не произошло
Конец отчёта
==== Контрольная сумма отчёта 2032FF352C53C20D1F5CD2CCDC770CF03A111D8212BA845F60E30D3EE40E2C61 ====
Код:
REM GENRE Chanson
REM DATE 2010
REM DISCID B00BB10D
REM COMMENT "ExactAudioCopy v1.0b3"
CATALOG 0602527461106
PERFORMER "Michel Sardou"
TITLE "Etre une Femme 2010"
FILE "01 Et puis après.wav" WAVE
  TRACK 01 AUDIO
    TITLE "Et puis après"
    PERFORMER "Michel Sardou"
    ISRC FRUM71000112
    INDEX 01 00:00:00
  TRACK 02 AUDIO
    TITLE "Être une femme (2010)"
    PERFORMER "Michel Sardou"
    ISRC FRUM71000114
    INDEX 00 03:38:07
FILE "02 Être une femme (2010).wav" WAVE
    INDEX 01 00:00:00
  TRACK 03 AUDIO
    TITLE "Voler (en duo avec Celine Dion)"
    PERFORMER "Michel Sardou"
    ISRC FRUM71001336
    INDEX 00 03:30:26
FILE "03 Voler (en duo avec Celine Dion).wav" WAVE
    INDEX 01 00:00:00
  TRACK 04 AUDIO
    TITLE "Chacun sa vérité"
    PERFORMER "Michel Sardou"
    ISRC FRUM71000364
    INDEX 00 03:45:32
FILE "04 Chacun sa vérité.wav" WAVE
    INDEX 01 00:00:00
  TRACK 05 AUDIO
    TITLE "Elle vit toute seule"
    PERFORMER "Michel Sardou"
    ISRC FRUM71000365
    INDEX 00 03:11:48
FILE "05 Elle vit toute seule.wav" WAVE
    INDEX 01 00:00:00
  TRACK 06 AUDIO
    TITLE "Ça viendra forcément"
    PERFORMER "Michel Sardou"
    ISRC FRUM71000366
    INDEX 00 03:23:05
FILE "06 Ça viendra forcément.wav" WAVE
    INDEX 01 00:00:00
  TRACK 07 AUDIO
    TITLE "Rebelle"
    PERFORMER "Michel Sardou"
    ISRC FRUM71000367
    INDEX 00 03:29:04
FILE "07 Rebelle.wav" WAVE
    INDEX 01 00:00:00
  TRACK 08 AUDIO
    TITLE "Une corde pour se noyer"
    PERFORMER "Michel Sardou"
    ISRC FRUM71000368
    INDEX 00 02:50:25
FILE "08 Une corde pour se noyer.wav" WAVE
    INDEX 01 00:00:00
FILE "09 Soleil ou pas.wav" WAVE
  TRACK 09 AUDIO
    TITLE "Soleil ou pas"
    PERFORMER "Michel Sardou"
    ISRC FRUM71000369
    INDEX 01 00:00:00
  TRACK 10 AUDIO
    TITLE "L'humaine différence"
    PERFORMER "Michel Sardou"
    ISRC FRUM71000370
    INDEX 00 03:32:04
FILE "10 L'humaine différence.wav" WAVE
    INDEX 01 00:00:00
FILE "11 Nuits Blanches à Rio.wav" WAVE
  TRACK 11 AUDIO
    TITLE "Nuits Blanches à Rio"
    PERFORMER "Michel Sardou"
    ISRC FRUM71000371
    INDEX 01 00:00:00
  TRACK 12 AUDIO
    TITLE "Lequel sommes-nous?"
    PERFORMER "Michel Sardou"
    ISRC FRUM71000372
    INDEX 00 03:13:70
FILE "12 Lequel sommes-nous.wav" WAVE
    INDEX 01 00:00:00
  TRACK 13 MODEx/2xxx
    TITLE "Data"
    PERFORMER "Michel Sardou"
    INDEX 00 02:50:50



Правила, инструкции, FAQ!!!
Торрент  Добавлен [01 янв 2020, 22:56] Скачать торрент Магнет ссылка
Скачать торрент
[ Размер 5.26 КБ / Просмотров 2 ]

Статус
Проверен 
 
Размер  319.29 МБ
Приватный: Нет (DHT включён)
.torrent скачан  0
 


     Отправить личное сообщение
   
Страница 1 из 1
Показать сообщения за:  Поле сортировки  
Начать новую тему Ответить на тему


Сейчас этот форум просматривают: нет зарегистрированных пользователей и гости: 0


Вы не можете начинать темы
Вы не можете отвечать на сообщения
Вы не можете редактировать свои сообщения
Вы не можете удалять свои сообщения
Вы не можете добавлять вложения

Перейти:  
cron