Начать новую тему Ответить на тему
Статистика раздачи
Размер: 283.81 МБ | Добавлен: 01 янв 2020, 22:48 | Скачали: 0
Сидеров: 0  [0 байт/сек]    Личеров: 0  [0 байт/сек]
Пред. тема | След. тема 

Автор
Сообщение

СообщениеДобавлено: 01 янв 2020, 22:48 

Ответить с цитатой 


Dani Bouillard

Technicolor





• Жанр: French Pop | Chanson
• Носитель: WEB
• Год издания: 2018
• Издатель: Microcultures 2
• Страна: France
• Аудиокодек: FLAC (*.flac)
• Тип рипа: tracks
• Продолжительность: 00:45:53
• Источник (спасибо): NBMus
• WEB релиз: qobuz
• Наличие сканов: front

01 - Les ritournelles (00:04:55)
02 - Chabadabada (00:03:42)
03 - Il y a des jours (00:03:35)
04 - Papillon piscine (00:03:57)
05 - Printemps canaille (00:03:09)
06 - Le bayou (00:03:38)
07 - Technicolor (00:03:07)
08 - J'habite trop loin (00:03:17)
09 - Gendre ideal (00:03:16)
10 - Le vieux con (00:04:05)
11 - Libido de Zorro (00:04:10)
12 - Tocs et tics (00:04:57)



Код:
foobar2000 1.3.17 / Замер динамического диапазона (DR) 1.1.1
Дата отчёта:  2018-10-13 13:58:51
--------------------------------------------------------------------------------
Анализ:   Dani Bouillard / Technicolor
--------------------------------------------------------------------------------
DR         Пики         RMS           Продолжительность трека
--------------------------------------------------------------------------------
DR6       -0.05 дБ    -7.40 дБ      4:56 01-Les ritournelles
DR7       -0.37 дБ    -9.14 дБ      3:42 02-Chabadabada
DR5       -0.37 дБ    -7.24 дБ      3:35 03-Il y a des jours
DR7       -0.05 дБ    -8.75 дБ      3:58 04-Papillon piscine
DR9       -0.05 дБ   -11.22 дБ      3:10 05-Printemps canaille
DR8       -0.05 дБ    -9.70 дБ      3:38 06-Le bayou
DR7       -0.05 дБ    -8.37 дБ      3:08 07-Technicolor
DR9       -0.05 дБ   -10.59 дБ      3:17 08-J’habite trop loin
DR9       -0.05 дБ   -10.19 дБ      3:17 09-Gendre idéal
DR7       -0.05 дБ    -9.67 дБ      4:05 10-Le vieux con
DR8       -0.05 дБ    -9.04 дБ      4:10 11-Libido de Zorro
DR7       -0.05 дБ    -9.39 дБ      4:57 12-Tocs et tics
--------------------------------------------------------------------------------
Количество треков: 12
Реальные значения DR: DR7
Частота:   44100 Гц
Каналов:   2
Разрядность:   16
Битрейт:   814 кбит/с
Кодек:   FLAC
================================================================================

Код:
-----------------------
DON'T MODIFY THIS FILE
-----------------------
PERFORMER: auCDtect Task Manager, ver. 1.5.1RC3 build 1.5.1.4
Copyright (c) 2008-2010 y-soft. All rights reserved
[url=http://y-soft.org]http://y-soft.org[/url]
ANALYZER: auCDtect: CD records authenticity detector, version 0.8.2
Copyright (c) 2004 Oleg Berngardt. All rights reserved.
Copyright (c) 2004 Alexander Djourik. All rights reserved.
FILE: 12.flac
  Size: 30397895 Hash: 1B15F0C6ACDA21C641EED8E218776835 Accuracy: -m0
  Conclusion: CDDA 100%
  Signature: 1402AE9CE88F859F5CB084B4FD2F0255F21E1CED
FILE: 11.flac
  Size: 29487531 Hash: F2C5271BDAEA29CA5643516C3D522CA3 Accuracy: -m0
  Conclusion: CDDA 100%
  Signature: 0FBBEBF76089AD37C164ABF413A1AEF5DBA51D4E
FILE: 10.flac
  Size: 26522615 Hash: D16ECB1CBD81798D890577B50690459C Accuracy: -m0
  Conclusion: CDDA 100%
  Signature: 35136ABFB7EC3CE30E75299D4EBA00D4C87B330B
FILE: 09.flac
  Size: 22177744 Hash: 0A39E968D07DC108CBC6CDA8111AF1DB Accuracy: -m0
  Conclusion: CDDA 100%
  Signature: 74274ED59C8321CCFFE9B98B3DCEBE9AE5C2D1BE
FILE: 08.flac
  Size: 22376978 Hash: FAF419B120EE06514CC864F97D2FF359 Accuracy: -m0
  Conclusion: CDDA 100%
  Signature: D00E7760329018F98F1A637968DE5F7401841268
FILE: 07.flac
  Size: 20503932 Hash: D008693FF01469874E9EF77472144D0E Accuracy: -m0
  Conclusion: CDDA 100%
  Signature: 67E45377B1F67C7810B003AC5224A98CCBE2B170
FILE: 06.flac
  Size: 18670725 Hash: DA590190230271FBE66CBB1B8713F3EB Accuracy: -m0
  Conclusion: CDDA 99%
  Signature: 5A1196514DFDC601AEA54E38E0FF6C1C5B6FE386
FILE: 05.flac
  Size: 19823610 Hash: 53F2029333A1739242622EFEDF46175D Accuracy: -m0
  Conclusion: CDDA 100%
  Signature: 1AFE0D90F936534122C04AAB7D5A999BFF3E17FC
FILE: 04.flac
  Size: 25697471 Hash: 489DD0385F3051176661E9F3A646807B Accuracy: -m0
  Conclusion: CDDA 100%
  Signature: A1152AC91B1A893586748F7F9EB00EA77DAE6702
FILE: 03.flac
  Size: 24251597 Hash: A9453891191402A5D5E0ECF509CEC329 Accuracy: -m0
  Conclusion: CDDA 100%
  Signature: 867797B1689FF61ECE4C87637B1E3E87017FF77A
FILE: 02.flac
  Size: 27146724 Hash: 532361DCC4C35F89DE229E352A344B01 Accuracy: -m0
  Conclusion: CDDA 100%
  Signature: 99332C4D8D22123F9F97E6D609FC5A3E98DD14A6
FILE: 01.flac
  Size: 30386255 Hash: 76AA72F296FF578C67DB192EF47687CA Accuracy: -m0
  Conclusion: CDDA 100%
  Signature: A3D786D0D4B544B5375BE1DB84AFAB33EAF5ADD2

Правила, инструкции, FAQ!!!
Торрент  Добавлен [01 янв 2020, 22:48] Скачать торрент Магнет ссылка
Скачать торрент
[ Размер 12.22 КБ / Просмотров 1 ]

Статус
Проверен 
 
Размер  283.81 МБ
Приватный: Нет (DHT включён)
.torrent скачан  0
 


     Отправить личное сообщение
   
Страница 1 из 1
Показать сообщения за:  Поле сортировки  
Начать новую тему Ответить на тему


Сейчас этот форум просматривают: нет зарегистрированных пользователей и гости: 0


Вы не можете начинать темы
Вы не можете отвечать на сообщения
Вы не можете редактировать свои сообщения
Вы не можете удалять свои сообщения
Вы не можете добавлять вложения

Перейти:  
cron