Начать новую тему Ответить на тему
Статистика раздачи
Размер: 480.61 МБ | Добавлен: 01 янв 2020, 23:10 | Скачали: 0
Сидеров: 0  [0 байт/сек]    Личеров: 0  [0 байт/сек]
Пред. тема | След. тема 

Автор
Сообщение

СообщениеДобавлено: 01 янв 2020, 23:10 

Ответить с цитатой 

Bernard Lavilliers / Distingue [Anthology]
Жанр: French Pop, Chanson, Ballad, Reggae
Носитель: CD
Страна-производитель диска (релиза): Germany
Год издания: 2016
Издатель (лейбл): Olaf Thulemann Productions
Номер по каталогу: no number
Страна исполнителя (группы): France
Аудиокодек: FLAC (*.flac)
Тип рипа: tracks+.cue
Битрейт аудио: lossless
Продолжительность: 75:16
Источник (релизер): torvaldsen--thulemann
Наличие сканов в содержимом раздачи: да
Треклист:
01. Troisièmes Couteaux
02. Bosse https://www.youtube.com/watch?v=p0grHzjXRIw
03. Ma Belle https://www.youtube.com/watch?v=IkqXbRwv-MU
04. Melody Tempo Harmony (Duo Avec Jimmy Cliff) https://www.youtube.com/watch?v=yoQbRyKaOhA
05. Maria Bonita
06. Guitar Song
07. Rafales
08. Stand The Ghetto (Nouvelle Version)
09. Saudade
10. Je Te Reconnaîtrai
11. Samedi Soir à Beyrouth
12. Elle Chante (Duo Avec Cesária Évora)
13. Messageries Maritimes
14. Betty
15. Distingué
16. L'été
17. Question De Peau
18. Solitaire
Код:
Exact Audio Copy V0.99 prebeta 5 from 4. May 2009
EAC extraction logfile from 30. March 2016, 15:11
Bernard Lavilliers / Distingue
Used drive  : ASUS    DRW-22B1LT   Adapter: 3  ID: 0
Read mode               : Secure
Utilize accurate stream : Yes
Defeat audio cache      : Yes
Make use of C2 pointers : No
Read offset correction                      : 6
Overread into Lead-In and Lead-Out          : No
Fill up missing offset samples with silence : Yes
Delete leading and trailing silent blocks   : No
Null samples used in CRC calculations       : Yes
Used interface                              : Installed external ASPI interface
Gap handling                                : Appended to previous track
Used output format : Internal WAV Routines
Sample format      : 44.100 Hz; 16 Bit; Stereo
TOC of the extracted CD
     Track |   Start  |  Length  | Start sector | End sector
    ---------------------------------------------------------
        1  |  0:00.00 |  4:45.37 |         0    |    21411
        2  |  4:45.37 |  3:46.43 |     21412    |    38404
        3  |  8:32.05 |  4:09.01 |     38405    |    57080
        4  | 12:41.06 |  3:49.00 |     57081    |    74255
        5  | 16:30.06 |  4:24.18 |     74256    |    94073
        6  | 20:54.24 |  3:09.49 |     94074    |   108297
        7  | 24:03.73 |  4:33.22 |    108298    |   128794
        8  | 28:37.20 |  5:04.00 |    128795    |   151594
        9  | 33:41.20 |  4:51.03 |    151595    |   173422
       10  | 38:32.23 |  3:48.24 |    173423    |   190546
       11  | 42:20.47 |  4:40.00 |    190547    |   211546
       12  | 47:00.47 |  3:52.55 |    211547    |   229001
       13  | 50:53.27 |  4:47.00 |    229002    |   250526
       14  | 55:40.27 |  4:48.08 |    250527    |   272134
       15  | 60:28.35 |  3:32.00 |    272135    |   288034
       16  | 64:00.35 |  4:12.00 |    288035    |   306934
       17  | 68:12.35 |  3:49.00 |    306935    |   324109
       18  | 72:01.35 |  3:15.00 |    324110    |   338734
Track  1
     Filename G:\rip_dir\01 - Troisiemes Couteaux.wav
     Pre-gap length  0:00:02.00
     Peak level 96.5 %
     Track quality 100.0 %
     Test CRC 060C6BDF
     Copy CRC 060C6BDF
     Copy OK
Track  2
     Filename G:\rip_dir\02 - Bosse.wav
     Peak level 96.5 %
     Track quality 100.0 %
     Test CRC C5A8E8A2
     Copy CRC C5A8E8A2
     Copy OK
Track  3
     Filename G:\rip_dir\03 - Ma Belle.wav
     Peak level 96.5 %
     Track quality 100.0 %
     Test CRC 2AD87FE1
     Copy CRC 2AD87FE1
     Copy OK
Track  4
     Filename G:\rip_dir\04 - Melody Tempo Harmony (Duo Avec Jimmy Cliff).wav
     Peak level 96.6 %
     Track quality 100.0 %
     Test CRC FE7FCFB0
     Copy CRC FE7FCFB0
     Copy OK
Track  5
     Filename G:\rip_dir\05 - Maria Bonita.wav
     Peak level 96.5 %
     Track quality 100.0 %
     Test CRC 10B910B2
     Copy CRC 10B910B2
     Copy OK
Track  6
     Filename G:\rip_dir\06 - Guitar Song.wav
     Peak level 88.0 %
     Track quality 100.0 %
     Test CRC CF4FFEAE
     Copy CRC CF4FFEAE
     Copy OK
Track  7
     Filename G:\rip_dir\07 - Rafales.wav
     Peak level 96.5 %
     Track quality 100.0 %
     Test CRC 0ADA8213
     Copy CRC 0ADA8213
     Copy OK
Track  8
     Filename G:\rip_dir\08 - Stand The Ghetto (Nouvelle Version).wav
     Peak level 96.5 %
     Track quality 100.0 %
     Test CRC A9DE77E2
     Copy CRC A9DE77E2
     Copy OK
Track  9
     Filename G:\rip_dir\09 - Saudade.wav
     Peak level 97.0 %
     Track quality 100.0 %
     Test CRC 3345C0F3
     Copy CRC 3345C0F3
     Copy OK
Track 10
     Filename G:\rip_dir\10 - Je Te Reconnaitrai.wav
     Peak level 96.5 %
     Track quality 100.0 %
     Test CRC 5B865C4E
     Copy CRC 5B865C4E
     Copy OK
Track 11
     Filename G:\rip_dir\11 - Samedi Soir A Beyrouth.wav
     Peak level 96.5 %
     Track quality 100.0 %
     Test CRC 8171BCFF
     Copy CRC 8171BCFF
     Copy OK
Track 12
     Filename G:\rip_dir\12 - Elle Chante (Duo Avec Cesaria Evora).wav
     Peak level 91.8 %
     Track quality 100.0 %
     Test CRC 929C7AA1
     Copy CRC 929C7AA1
     Copy OK
Track 13
     Filename G:\rip_dir\13 - Messageries Maritimes.wav
     Peak level 87.3 %
     Track quality 100.0 %
     Test CRC B30E1A92
     Copy CRC B30E1A92
     Copy OK
Track 14
     Filename G:\rip_dir\14 - Betty.wav
     Peak level 96.3 %
     Track quality 100.0 %
     Test CRC 3FBDFC0C
     Copy CRC 3FBDFC0C
     Copy OK
Track 15
     Filename G:\rip_dir\15 - Distingue.wav
     Peak level 96.4 %
     Track quality 100.0 %
     Test CRC 6D734FB1
     Copy CRC 6D734FB1
     Copy OK
Track 16
     Filename G:\rip_dir\16 - L'ete.wav
     Peak level 96.5 %
     Track quality 100.0 %
     Test CRC 68664D1A
     Copy CRC 68664D1A
     Copy OK
Track 17
     Filename G:\rip_dir\17 - Question De Peau.wav
     Peak level 94.3 %
     Track quality 100.0 %
     Test CRC FEAFC26B
     Copy CRC FEAFC26B
     Copy OK
Track 18
     Filename G:\rip_dir\18 - Solitaire.wav
     Peak level 96.5 %
     Track quality 100.0 %
     Test CRC E7136E55
     Copy CRC E7136E55
     Copy OK
No errors occurred
End of status report
Код:
REM GENRE "Pop, Reggae"
REM DATE 2016
REM DISCID EE11A412
REM COMMENT "ExactAudioCopy v0.99pb5"
PERFORMER "Bernard Lavilliers"
TITLE "Distingue"
FILE "01 - Troisiemes Couteaux.wav" WAVE
  TRACK 01 AUDIO
    TITLE "Troisiemes Couteaux"
    PERFORMER "Bernard Lavilliers"
    INDEX 01 00:00:00
FILE "02 - Bosse.wav" WAVE
  TRACK 02 AUDIO
    TITLE "Bosse"
    PERFORMER "Bernard Lavilliers"
    INDEX 01 00:00:00
FILE "03 - Ma Belle.wav" WAVE
  TRACK 03 AUDIO
    TITLE "Ma Belle"
    PERFORMER "Bernard Lavilliers"
    INDEX 01 00:00:00
FILE "04 - Melody Tempo Harmony (Duo Avec Jimmy Cliff).wav" WAVE
  TRACK 04 AUDIO
    TITLE "Melody Tempo Harmony (Duo Avec Jimmy Cliff)"
    PERFORMER "Bernard Lavilliers"
    INDEX 01 00:00:00
FILE "05 - Maria Bonita.wav" WAVE
  TRACK 05 AUDIO
    TITLE "Maria Bonita"
    PERFORMER "Bernard Lavilliers"
    INDEX 01 00:00:00
FILE "06 - Guitar Song.wav" WAVE
  TRACK 06 AUDIO
    TITLE "Guitar Song"
    PERFORMER "Bernard Lavilliers"
    INDEX 01 00:00:00
FILE "07 - Rafales.wav" WAVE
  TRACK 07 AUDIO
    TITLE "Rafales"
    PERFORMER "Bernard Lavilliers"
    INDEX 01 00:00:00
FILE "08 - Stand The Ghetto (Nouvelle Version).wav" WAVE
  TRACK 08 AUDIO
    TITLE "Stand The Ghetto (Nouvelle Version)"
    PERFORMER "Bernard Lavilliers"
    INDEX 01 00:00:00
FILE "09 - Saudade.wav" WAVE
  TRACK 09 AUDIO
    TITLE "Saudade"
    PERFORMER "Bernard Lavilliers"
    INDEX 01 00:00:00
FILE "10 - Je Te Reconnaitrai.wav" WAVE
  TRACK 10 AUDIO
    TITLE "Je Te Reconnaitrai"
    PERFORMER "Bernard Lavilliers"
    INDEX 01 00:00:00
FILE "11 - Samedi Soir A Beyrouth.wav" WAVE
  TRACK 11 AUDIO
    TITLE "Samedi Soir A Beyrouth"
    PERFORMER "Bernard Lavilliers"
    INDEX 01 00:00:00
FILE "12 - Elle Chante (Duo Avec Cesaria Evora).wav" WAVE
  TRACK 12 AUDIO
    TITLE "Elle Chante (Duo Avec Cesaria Evora)"
    PERFORMER "Bernard Lavilliers"
    INDEX 01 00:00:00
FILE "13 - Messageries Maritimes.wav" WAVE
  TRACK 13 AUDIO
    TITLE "Messageries Maritimes"
    PERFORMER "Bernard Lavilliers"
    INDEX 01 00:00:00
FILE "14 - Betty.wav" WAVE
  TRACK 14 AUDIO
    TITLE "Betty"
    PERFORMER "Bernard Lavilliers"
    INDEX 01 00:00:00
FILE "15 - Distingue.wav" WAVE
  TRACK 15 AUDIO
    TITLE "Distingue"
    PERFORMER "Bernard Lavilliers"
    INDEX 01 00:00:00
FILE "16 - L'ete.wav" WAVE
  TRACK 16 AUDIO
    TITLE "L'ete"
    PERFORMER "Bernard Lavilliers"
    INDEX 01 00:00:00
FILE "17 - Question De Peau.wav" WAVE
  TRACK 17 AUDIO
    TITLE "Question De Peau"
    PERFORMER "Bernard Lavilliers"
    INDEX 01 00:00:00
FILE "18 - Solitaire.wav" WAVE
  TRACK 18 AUDIO
    TITLE "Solitaire"
    PERFORMER "Bernard Lavilliers"
    INDEX 01 00:00:00
Код:
-----------------------
DON'T MODIFY THIS FILE
-----------------------
PERFORMER: auCDtect Task Manager, ver. 1.5.1RC6 build 1.5.1.7
Copyright (c) 2008-2010 y-soft. All rights reserved
[url=http://y-soft.org]http://y-soft.org[/url]
ANALYZER: auCDtect: CD records authenticity detector, version 0.8.2
Copyright (c) 2004 Oleg Berngardt. All rights reserved.
Copyright (c) 2004 Alexander Djourik. All rights reserved.
FILE: 01 - Troisiemes Couteaux.wav
  Size: 50363256 Hash: F369877F0ED8C87A346AAAD209A997D0 Accuracy: -m0
  Conclusion: CDDA 100%
  Signature: BA78DFBB930A7397B2A0580918B7029A0C133CFA
FILE: 02 - Bosse.wav
  Size: 39969754 Hash: 551A4FB48559CBF57452D7BC9EBAF5B1 Accuracy: -m0
  Conclusion: CDDA 100%
  Signature: 65F3FC0BD4D2C2257684672A19A5156DAC1A879E
FILE: 03 - Ma Belle.wav
  Size: 43928174 Hash: 341A03D3A62A1B7CDCD5C21AAEA484F6 Accuracy: -m0
  Conclusion: CDDA 100%
  Signature: 8A0593A982AF271725C602453DDAA94AAC733A48
FILE: 04 - Melody Tempo Harmony (Duo Avec Jimmy Cliff).wav
  Size: 40397856 Hash: DE66336763B85C5F2B28B753230BE902 Accuracy: -m0
  Conclusion: CDDA 100%
  Signature: 5A9E80C3AE529EDD51376DF5CF432344ABEC796D
FILE: 05 - Maria Bonita.wav
  Size: 46614162 Hash: 6E5D368992DA2AA9898D40D9C71F140B Accuracy: -m0
  Conclusion: CDDA 100%
  Signature: D9F30E1E195D8D284D463FA93203DF68ECD7B9C8
FILE: 06 - Guitar Song.wav
  Size: 33457072 Hash: A0E5CA69C33ADB9FAB2B8B5BA394160F Accuracy: -m0
  Conclusion: CDDA 100%
  Signature: AF46B63051C633777A840282A90CE495BCF42ECE
FILE: 07 - Rafales.wav
  Size: 48211164 Hash: 7B583B4747E32B09871304BAACB58496 Accuracy: -m0
  Conclusion: CDDA 100%
  Signature: CC996214B517BDAF00672D6612A4815E32FA59F7
FILE: 08 - Stand The Ghetto (Nouvelle Version).wav
  Size: 53627848 Hash: 1794423E3DEFE054817D30813DE003D9 Accuracy: -m0
  Conclusion: CDDA 100%
  Signature: 3A1095DFC17F200CAF1E1B4DC73809CCC241AAA0
FILE: 09 - Saudade.wav
  Size: 51341676 Hash: DA7CE70DE0D60F83A37404320A33094A Accuracy: -m0
  Conclusion: CDDA 99%
  Signature: DBE4F762D0216AC3630A6D2E990C639D7C9BB4DD
FILE: 10 - Je Te Reconnaitrai.wav
  Size: 40277880 Hash: E26F586BA4669EC7BD473DC59A1720BA Accuracy: -m0
  Conclusion: CDDA 100%
  Signature: 2458E846B99CF2C03798AFACA9381D8B65533ACC
FILE: 11 - Samedi Soir A Beyrouth.wav
  Size: 49394236 Hash: 5382E9AD8EAF570A2A7AB683C43C269C Accuracy: -m0
  Conclusion: CDDA 100%
  Signature: 66DC4D0FD3BF60947735533E1AEBB3968A2235CA
FILE: 12 - Elle Chante (Duo Avec Cesaria Evora).wav
  Size: 41056410 Hash: C06C829A95EAD720CEDF6FA4F5D025EB Accuracy: -m0
  Conclusion: CDDA 100%
  Signature: 989B0C3697AE72E708254384B22089A0D09228A8
FILE: 13 - Messageries Maritimes.wav
  Size: 50629034 Hash: BF129F51BEBFED85E2F77D6A5745744E Accuracy: -m0
  Conclusion: CDDA 100%
  Signature: 424AAD42A77FB474D744ABD8CC144D625F2CD189
FILE: 14 - Betty.wav
  Size: 50824234 Hash: 58A9DC77412A79F8792C675E58F6B86B Accuracy: -m0
  Conclusion: CDDA 100%
  Signature: 1C41584F98E94DE4EA6EC077CF5BDA49E405A9C8
FILE: 15 - Distingue.wav
  Size: 37399022 Hash: 05E1A135F307C31FD5339E6413B5A4B8 Accuracy: -m0
  Conclusion: CDDA 99%
  Signature: C8199AD5339B03E52C1D786EB94D9E07E9ABA658
FILE: 16 - L'ete.wav
  Size: 44455018 Hash: CC2AEE71730991C692779E45A4FF320E Accuracy: -m0
  Conclusion: CDDA 100%
  Signature: CD5F60F8649EB156F3D3C7DD9F5C8484C35DD790
FILE: 17 - Question De Peau.wav
  Size: 40397830 Hash: 64D4C629E5F2C9B904A0A92EEF1134F1 Accuracy: -m0
  Conclusion: CDDA 100%
  Signature: F5E9C109CB8245E1F0D2AC8CC4922EA179950442
FILE: 18 - Solitaire.wav
  Size: 34400222 Hash: FF62B6824A7E023E4FAB8B3A4CFCFFD9 Accuracy: -m0
  Conclusion: CDDA 100%
  Signature: DBC09DC531F71CCE493F760AAC94F833946A0472

Бернар Лавилье - человек-парадокс. За внешностью культуриста прячется хрупкая душа падшего ангела. За жесткими рок-манифестами на социально-политические темы следуют пронзительные по нежности любовные баллады. Одни видят в нем бунтаря, дикаря, хулигана, певца рабочих окраин, другие - тонкого интеллектуала и лирика. Темы Лавилье-поэта? Продажность и цинизм властей, несправедливость войн, где бы они ни возникали и какими бы лозунгами ни оправдывались. Бесконечность океанов и морей, куда он, будучи хорошим моряком, уходил в долгие путешествия. Пространства амазонской сельвы, исхоженные и вдоль, и поперек, - индейцы научили его выживать в них, превращаться в получеловека-полузверя, неуловимого, бесшумного, стремительного.
По характеру своему Лавилье изгой, отшельник. В Париже у него нет даже квартиры - он живет в отелях. Потому что ощущает себя всюду. Налаженному быту он предпочитает легкую походную сумку, гитару, видеокамеру, пачку бумаги и ручку. Он всегда в пути, всегда в разъездах.
Остановить его в этих опасных разъездах не смогли никакие "предупредительные знаки" судьбы - Лавилье чуть не умер в Сальвадоре от укуса ядовитой мухи, сидел в тюрьме за "неугодное властям поведение", воевал в Никарагуа. Чили, Сальвадор, Вьетнам, Африка, Никарагуа, Куба - в этих странах он обычно снимает комнатенку в невзрачном отеле, где не работает вентилятор, кусаются насекомые, а единственное окно выходит на городскую свалку...
- Представьте в общем-то сегодня достаточно невероятное: человечество оказалось в преддверии третьей мировой войны. О чем может петь поэт в этой ситуации? Какие надежды давать - впереди ведь нет будущего, нет иллюзий? - задаю я первый вопрос.
- А поэты в войну совершенно бесполезны. Они нужны сразу после, - отвечает он. - Надежду на счастье убить невозможно. Третья мировая война? Если бы она и случилась, от всех предыдущих отличалась бы тем, что у нее "нет названия", она не может быть локальной, а неизбежно планетарной. Никто не знает, за что и ради чего борется, никто не понимает ради чего - это война в стиле Безумного Макса. Думаю, тут уместно процитировать Арагона: "...Неразумное время, всюду смерть... Люди принимают волков за собак и строят песочные замки..."
- Вы воевали? Вы знаете, что это такое?
- Скорее защищался, когда попал в засаду, будучи в патруле - ведь я поддерживал идеи сандинистов. Мне пришлось отстреливаться. Это случилось в Никарагуа.
- Вы всегда там, где опасность. Вы ее будто ищете. Зачем? Существование бок о бок с этим ощущением для вас наиболее органично?
- Нет, я очень люблю жизнь. Я живучий. Я не нарываюсь на опасность. Просто она меня окружает, она всюду. Жизнь сегодня стала чрезвычайно хрупкой, она больше ничего не стоит.
Ловлю себя на странном ощущении - кого он мне так напоминает? Этой ранимостью, нервозностью, "зараженностью" политикой, неуживчивостью с обществом? Будто читая мои мысли, Бернар цитирует Маяковского и говорит, что когда-нибудь переложит на музыку его стихи и споет их со сцены. Маяковский, как Бодлер и Сандрар, Хемингуэй и Маркес - его постоянные спутники. Маяковский - его духовный брат? Да, но еще и брат по перу, брат по оружию. И брат по состраданию к людям и ненависти ко всему, что мешает им быть счастливыми.
Юлия Козлова (Париж - Москва 4 сентября 2002г)
(www.kultura-portal.ru) (http://forum.ru-board.com/topic.cgi?forum=1&active=1&topic=7705&start=40)
https://ru.wikipedia.org/wiki/Лавилье,_Бернар
Собрание - Антология - Частная коллекция
© 1994 - 2008 Barclay
© 2016 Olaf Thulemann Productions
Правила, инструкции, FAQ!!!
Торрент  Добавлен [01 янв 2020, 23:10] Скачать торрент Магнет ссылка
Скачать торрент
[ Размер 20.65 КБ / Просмотров 2 ]

Статус
Проверен 
 
Размер  480.61 МБ
Приватный: Нет (DHT включён)
.torrent скачан  0
 


     Отправить личное сообщение
   
Страница 1 из 1
Показать сообщения за:  Поле сортировки  
Начать новую тему Ответить на тему


Сейчас этот форум просматривают: нет зарегистрированных пользователей и гости: 0


Вы не можете начинать темы
Вы не можете отвечать на сообщения
Вы не можете редактировать свои сообщения
Вы не можете удалять свои сообщения
Вы не можете добавлять вложения

Перейти:  
cron