Начать новую тему Ответить на тему
Статистика раздачи
Размер: 342.9 МБ | Добавлен: 01 янв 2020, 22:44 | Скачали: 0
Сидеров: 0  [0 байт/сек]    Личеров: 0  [0 байт/сек]
Пред. тема | След. тема 

Автор
Сообщение

СообщениеДобавлено: 01 янв 2020, 22:44 

Ответить с цитатой 

Svahn! / Epoustatique et fantaspoufflant
Жанр: french chanson
Страна-производитель диска: France
Год издания диска: 2009
Издатель (лейбл): Coop Breiz
Страна: France
Аудиокодек: FLAC (*.flac)
Тип рипа: image+.cue
Битрейт аудио: lossless
Продолжительность: 49:49.360 (131 830 776 samples)
Источник (релизер): личный диск
Наличие сканов в содержимом раздачи: да
Треклист:
01. Tv achat
02. Complainte contre x
03. Une vie rapée
04. Putaing con !
05. La nourriturlututue
06. La valse des étiquettes
07. Jah lave
08. Mission Andromède
09. Irish St-Petersblues
10. Faut pas
11. Mon Jalabert
12. Aldébaran
13. Je me rêve en animal
14. Ethnic tamer
Код:
Exact Audio Copy V0.99 prebeta 4 from 23. January 2008
Отчёт EAC об извлечении, выполненном 31. октября 2011, 0:16
Svahn! / Epoustatique et fantaspoufflant
Дисковод: MATSHITADVD-RAM UJ-852S   Adapter: 0  ID: 0
Режим чтения                 : Достоверность
Использование точного потока : Да
Отключение кэша аудио        : Да
Использование указателей C2  : Нет
Коррекция смещения при чтении                     : 102
Способность читать области Lead-in и Lead-out     : Нет
Заполнение пропущенных сэмплов тишиной            : Да
Удаление блоков с тишиной в начале и конце        : Нет
При вычислениях CRC использовались нулевые сэмплы : Да
Интерфейс                                         : Установленный внешний ASPI-интерфейс
Выходной формат     : Внутренние WAV-операции
Формат сэмплов      : 44.100 Гц; 16 бит; стерео
Смещение при сжатии : 0
TOC извлечённого CD
     Трек |   Старт  | Длительность | Начальный сектор | Конечный сектор
    ---------------------------------------------------------------------
       1  |  0:00.00 |    3:21.21   |           0      |      15095
       2  |  3:21.21 |    3:15.60   |       15096      |      29780
       3  |  6:37.06 |    4:11.15   |       29781      |      48620
       4  | 10:48.21 |    2:24.47   |       48621      |      59467
       5  | 13:12.68 |    4:26.73   |       59468      |      79490
       6  | 17:39.66 |    2:50.06   |       79491      |      92246
       7  | 20:29.72 |    3:16.00   |       92247      |     106946
       8  | 23:45.72 |    5:52.12   |      106947      |     133358
       9  | 29:38.09 |    2:42.52   |      133359      |     145560
      10  | 32:20.61 |    4:47.54   |      145561      |     167139
      11  | 37:08.40 |    3:35.07   |      167140      |     183271
      12  | 40:43.47 |    3:29.08   |      183272      |     198954
      13  | 44:12.55 |    2:19.15   |      198955      |     209394
      14  | 46:31.70 |    3:17.32   |      209395      |     224201
Характеристики диапазона извлечения и сообщения об ошибках
Выбранный диапазон
     Имя файла C:\Users\Igot\Desktop\NEUE CDS\Svahn! - Epoustatique et fantaspoufflant.wav
     Пиковый уровень 97.7 %
     Качество диапазона 100.0 %
     CRC копии A75C59A8
     Копирование... OK
Ошибок не произошло
Конец отчёта
Код:
REM DISCID B40BAD0E
REM DATE 2009
REM COMMENT "ExactAudioCopy v0.99pb4"
PERFORMER "Svahn!"
TITLE "Epoustatique et fantaspoufflant"
FILE "Svahn! - Epoustatique et fantaspoufflant.flac" WAVE
  TRACK 01 AUDIO
    TITLE "TV Achat"
    PERFORMER "Svahn!"
    FLAGS DCP
    INDEX 01 00:00:00
  TRACK 02 AUDIO
    TITLE "Complainte contre X"
    PERFORMER "Svahn!"
    FLAGS DCP
    INDEX 00 03:19:21
    INDEX 01 03:21:21
  TRACK 03 AUDIO
    TITLE "Une vie rapee"
    PERFORMER "Svahn!"
    FLAGS DCP
    INDEX 00 06:35:06
    INDEX 01 06:37:06
  TRACK 04 AUDIO
    TITLE "Putaing con!"
    PERFORMER "Svahn!"
    FLAGS DCP
    INDEX 00 10:46:21
    INDEX 01 10:48:21
  TRACK 05 AUDIO
    TITLE "La nourriturlututue"
    PERFORMER "Svahn!"
    FLAGS DCP
    INDEX 00 13:10:68
    INDEX 01 13:12:68
  TRACK 06 AUDIO
    TITLE "La valse des etiquettes"
    PERFORMER "Svahn!"
    FLAGS DCP
    INDEX 00 17:37:66
    INDEX 01 17:39:66
  TRACK 07 AUDIO
    TITLE "Jah lave"
    PERFORMER "Svahn!"
    FLAGS DCP
    INDEX 00 20:27:72
    INDEX 01 20:29:72
  TRACK 08 AUDIO
    TITLE "Mission Andromиde"
    PERFORMER "Svahn!"
    FLAGS DCP
    INDEX 00 23:43:72
    INDEX 01 23:45:72
  TRACK 09 AUDIO
    TITLE "Irish St-Petersblues"
    PERFORMER "Svahn!"
    FLAGS DCP
    INDEX 00 29:36:09
    INDEX 01 29:38:09
  TRACK 10 AUDIO
    TITLE "Faut pas"
    PERFORMER "Svahn!"
    FLAGS DCP
    INDEX 00 32:18:61
    INDEX 01 32:20:61
  TRACK 11 AUDIO
    TITLE "Mon Jalabert"
    PERFORMER "Svahn!"
    FLAGS DCP
    INDEX 00 37:06:40
    INDEX 01 37:08:40
  TRACK 12 AUDIO
    TITLE "Aldebaran"
    PERFORMER "Svahn!"
    FLAGS DCP
    INDEX 00 40:41:47
    INDEX 01 40:43:47
  TRACK 13 AUDIO
    TITLE "Je me reve en animal"
    PERFORMER "Svahn!"
    FLAGS DCP
    INDEX 00 44:10:55
    INDEX 01 44:12:55
  TRACK 14 AUDIO
    TITLE "Ethnik Tamer"
    PERFORMER "Svahn!"
    FLAGS DCP
    INDEX 00 46:29:70
    INDEX 01 46:31:70
Код:
Started at: ñóááîòà, 12. 11. 2011. - 12:43.25
1 file found
1 -===- C:\Users\Igor\Desktop\NEUE CDS\Svahn! - Epoustatique et fantaspoufflant\Svahn! - Epoustatique et fantaspoufflant.flac
  Extracted successfully
  Conclusion: this track is CDDA with probability 100%
  Tempfile successfully deleted.
Finished at: ñóááîòà, 12. 11. 2011. - 12:49.42 (operation time: 0:06.16)
Доп. информация: Мой друг купил этот диск во Франции. Прекрасная музыка!!! Наслаждайтесь. Особенно крута песня "Irish St-Petersblues". Настоящий отрыв.
Правила, инструкции, FAQ!!!
Торрент  Добавлен [01 янв 2020, 22:44] Скачать торрент Магнет ссылка
Скачать торрент
[ Размер 14.16 КБ / Просмотров 3 ]

Статус
Проверен 
 
Размер  342.9 МБ
Приватный: Нет (DHT включён)
.torrent скачан  0
 


     Отправить личное сообщение
   
Страница 1 из 1
Показать сообщения за:  Поле сортировки  
Начать новую тему Ответить на тему


Сейчас этот форум просматривают: нет зарегистрированных пользователей и гости: 0


Вы не можете начинать темы
Вы не можете отвечать на сообщения
Вы не можете редактировать свои сообщения
Вы не можете удалять свои сообщения
Вы не можете добавлять вложения

Перейти:  
cron