Начать новую тему Ответить на тему
Статистика раздачи
Размер: 295.1 МБ | Добавлен: 01 янв 2020, 22:42 | Скачали: 0
Сидеров: 0  [0 байт/сек]    Личеров: 0  [0 байт/сек]
Пред. тема | След. тема 

Автор
Сообщение

СообщениеДобавлено: 01 янв 2020, 22:42 

Ответить с цитатой 

Yves Desrosiers / Volodia {Песни Владимира Высоцкого}
Жанр: French Chanson, Songwriter
Страна-производитель диска: Canada
Год издания диска: 2002
Издатель (лейбл): Audiogram / Phantom
Номер по каталогу: 79082
Страна: Canada
Аудио кодек: FLAC (*.flac)
Тип рипа: image+.cue
Битрейт аудио: lossless
Продолжительность: 00:48:08.933 (127 401 960 samples)
Источник (релизер): nnm.ru (semiadmin)
Наличие сканов в содержимом раздачи: нет
Треклист:
01. Yves Desrosiers — La lettre (4:17)
02. Yves Desrosiers — Chanson sur l'ami (2:36)
03. Yves Desrosiers — Les étoiles (2:42)
04. Yves Desrosiers — Le chanteur devant le micro (4:38)
05. Yves Desrosiers — Les deux destinées (8:51)
06. Yves Desrosiers — Le vol arrêté (4:53)
07. Yves Desrosiers — En cristal (3:06)
08. Yves Desrosiers — Rien ne va plus (3:25)
09. Yves Desrosiers — Vers le froid (2:46)
10. Yves Desrosiers — Les cigognes (4:43)
11. Yves Desrosiers — Koni preveredlivye (6:08)

Доп. информация: Песни Владимира Высоцкого, аранжированные на французском языке квебекским шансонье Ивом Дерозье (Yves Desrosiers)
Код:
Exact Audio Copy V0.99 prebeta 5 from 4. May 2009
EAC extraction logfile from 8. February 2011, 19:34
Yves Desrosiers / Volodia
Used drive  : SlimtypeDVD A DS8A4S   Adapter: 1  ID: 0
Read mode               : Secure
Utilize accurate stream : Yes
Defeat audio cache      : Yes
Make use of C2 pointers : No
Read offset correction                      : 6
Overread into Lead-In and Lead-Out          : No
Fill up missing offset samples with silence : Yes
Delete leading and trailing silent blocks   : No
Null samples used in CRC calculations       : Yes
Used interface                              : Native Win32 interface for Win NT & 2000
Used output format              : User Defined Encoder
Selected bitrate                : 768 kBit/s
Quality                         : High
Add ID3 tag                     : Yes
Command line compressor         : C:\Program Files (x86)\Exact Audio Copy\FLAC\FLAC.EXE
Additional command line options : -6 -V -T "ARTIST=%a" -T "TITLE=%t" -T "ALBUM=%g" -T "DATE=%y" -T "TRACKNUMBER=%n" -T "GENRE=%m" -T "COMMENT=%e" %s -o %d
TOC of the extracted CD
     Track |   Start  |  Length  | Start sector | End sector
    ---------------------------------------------------------
        1  |  0:00.00 |  4:17.30 |         0    |    19304
        2  |  4:17.30 |  2:36.05 |     19305    |    31009
        3  |  6:53.35 |  2:42.57 |     31010    |    43216
        4  |  9:36.17 |  4:38.25 |     43217    |    64091
        5  | 14:14.42 |  8:51.18 |     64092    |   103934
        6  | 23:05.60 |  4:53.35 |    103935    |   125944
        7  | 27:59.20 |  3:06.67 |    125945    |   139961
        8  | 31:06.12 |  3:25.00 |    139962    |   155336
        9  | 34:31.12 |  2:46.08 |    155337    |   167794
       10  | 37:17.20 |  4:43.27 |    167795    |   189046
       11  | 42:00.47 |  6:08.23 |    189047    |   216669
Range status and errors
Selected range
     Filename C:\Yves Desrosiers - Volodia.wav
     Peak level 98.8 %
     Range quality 99.9 %
     Copy CRC F759BCC9
     Copy OK
No errors occurred
AccurateRip summary
Track  1  accurately ripped (confidence 2)  [4AC3A4F0]
Track  2  accurately ripped (confidence 2)  [121B42D8]
Track  3  accurately ripped (confidence 2)  [EF6EA0C0]
Track  4  accurately ripped (confidence 2)  [ED172247]
Track  5  accurately ripped (confidence 2)  [E02D37B2]
Track  6  accurately ripped (confidence 2)  [BC39C16C]
Track  7  accurately ripped (confidence 2)  [EB36ED17]
Track  8  accurately ripped (confidence 2)  [B3370AAD]
Track  9  accurately ripped (confidence 2)  [B4E212EB]
Track 10  accurately ripped (confidence 2)  [3972EB47]
Track 11  accurately ripped (confidence 2)  [A2F4A144]
All tracks accurately ripped
End of status report
Код:
-----------------------
DON'T MODIFY THIS FILE
-----------------------
PERFORMER: auCDtect Task Manager, ver. 1.5.1RC4 build 1.5.1.5
Copyright (c) 2008-2010 y-soft. All rights reserved
[url=http://y-soft.org]http://y-soft.org[/url]
ANALYZER: auCDtect: CD records authenticity detector, version 0.8.2
Copyright (c) 2004 Oleg Berngardt. All rights reserved.
Copyright (c) 2004 Alexander Djourik. All rights reserved.
FILE: Yves Desrosiers - Volodia.flac
  Size: 308961014 Hash: 97C9A35A1298C8E1EB31A9410F1F53DF Accuracy: -m0
  Conclusion: CDDA 100%
  Signature: 9017A3BF59532CF7743E474393706DE6414159AD
#777
Пока журналисты и коллекционеры решают вопрос, петь или не петь песни Владимира Семеновича Высоцкого еще кому-то, кроме автора, в Канаде решили записать диск его песен. Проект готовился несколько лет, что более чем положительно отразилось на качестве. Хороший звук, профессиональные аранжировки, сделанные со вкусом и мерой. До сегодняшнего дня было принято считать, что лучшие оркестровки для Высоцкого сделал Константин Казанский, теперь есть и другой претендент.
Звук, как бы это сказать, получился немного «французистым», я бы так сказал – мягкий аккордеон, бархатный рояль, «не наши» гитары, более приглушенный звук. Откровенно – очень хорошая работа. Диск вышел в 2002 году, есть сведения, что вроде бы переиздавался в 2007 году, до России широко не дошел, а жаль. На самом деле хорошая работа, такие диски нужно покупать и ставить на полку «рарити», что будет вполне заслуженно. Нет надрывного хрипа и подражательности первоисточнику, но есть обаяние и задушевность, это иногда главнее. И потом, эти же песни, почти все, знакомы и так наизусть россиянам, можно и подпеть, канадец – по-французски, а мы уж – по-своему, у кого как со слухом и голосом.
~Михаил Дюков~
Правила, инструкции, FAQ!!!
Торрент  Добавлен [01 янв 2020, 22:42] Скачать торрент Магнет ссылка
Скачать торрент
[ Размер 12.28 КБ / Просмотров 8 ]

Статус
Проверен 
 
Размер  295.1 МБ
Приватный: Нет (DHT включён)
.torrent скачан  0
 


     Отправить личное сообщение
   
Страница 1 из 1
Показать сообщения за:  Поле сортировки  
Начать новую тему Ответить на тему


Сейчас этот форум просматривают: нет зарегистрированных пользователей и гости: 0


Вы не можете начинать темы
Вы не можете отвечать на сообщения
Вы не можете редактировать свои сообщения
Вы не можете удалять свои сообщения
Вы не можете добавлять вложения

Перейти:  
cron