Начать новую тему Ответить на тему
Статистика раздачи
Размер: 291.77 МБ | Добавлен: 01 янв 2020, 22:41 | Скачали: 0
Сидеров: 0  [0 байт/сек]    Личеров: 0  [0 байт/сек]
Пред. тема | След. тема 

Автор
Сообщение

СообщениеДобавлено: 01 янв 2020, 22:41 

Ответить с цитатой 

Les Blerots de R.A.V.E.L - Voleurs du dimanche
Жанр: French Chanson
Год выпуска диска: 2008
Производитель диска: France
Аудио кодек: FLAC
Тип рипа: image+.cue
Битрейт аудио: lossless
Трэклист:
01. Nous deux
02. Les p'tits plaisirs
03. Interview
04. Les voleurs du dimanche
05. Roost
06. Ta femme
07. Le vilain petit cowboy
08. Le poisson a deux tates
09. Les girafes du bord de mer
10. Pipo de bilan
11. !!
12. A toute petite vitesse
13. Gobemouches
14. Sous mes cheveux
Код:
Exact Audio Copy V0.99 prebeta 4 from 23. January 2008
EAC extraction logfile from 7. February 2009, 0:39
Les Blerots de Ravel / Voleurs du dimanche
Used drive  : MATSHITADVD-RAM UJ-852S   Adapter: 0  ID: 0
Read mode               : Secure
Utilize accurate stream : Yes
Defeat audio cache      : Yes
Make use of C2 pointers : No
Read offset correction                      : 102
Overread into Lead-In and Lead-Out          : No
Fill up missing offset samples with silence : Yes
Delete leading and trailing silent blocks   : No
Null samples used in CRC calculations       : Yes
Used interface                              : Native Win32 interface for Win NT & 2000
Used output format     : Internal WAV Routines
Sample format          : 44.100 Hz; 16 Bit; Stereo
Use compression offset : 0
TOC of the extracted CD
     Track |   Start  |  Length  | Start sector | End sector
    ---------------------------------------------------------
        1  |  0:00.00 |  1:55.40 |         0    |     8664
        2  |  1:55.40 |  3:02.46 |      8665    |    22360
        3  |  4:58.11 |  0:39.21 |     22361    |    25306
        4  |  5:37.32 |  2:37.46 |     25307    |    37127
        5  |  8:15.03 |  4:10.40 |     37128    |    55917
        6  | 12:25.43 |  3:40.65 |     55918    |    72482
        7  | 16:06.33 |  3:38.42 |     72483    |    88874
        8  | 19:45.00 |  3:24.71 |     88875    |   104245
        9  | 23:09.71 |  3:45.71 |    104246    |   121191
       10  | 26:55.67 |  3:52.00 |    121192    |   138591
       11  | 30:47.67 |  0:25.17 |    138592    |   140483
       12  | 31:13.09 |  2:54.44 |    140484    |   153577
       13  | 34:07.53 |  3:16.07 |    153578    |   168284
       14  | 37:23.60 |  7:31.06 |    168285    |   202115
       15  | 47:26.66 |  5:32.50 |    213516    |   238465
Range status and errors
Selected range
     Filename C:\Users\Igot\Music\Tiffit\Les Blerots de Ravel - Voleurs du dimanche.wav
     Peak level 100.0 %
     Range quality 100.0 %
     Copy CRC 5446CDFC
     Copy OK
No errors occurred
End of status report
Правила, инструкции, FAQ!!!
Торрент  Добавлен [01 янв 2020, 22:41] Скачать торрент Магнет ссылка
Скачать торрент
[ Размер 12.11 КБ / Просмотров 0 ]

Статус
Проверен 
 
Размер  291.77 МБ
Приватный: Нет (DHT включён)
.torrent скачан  0
 


     Отправить личное сообщение
   
Страница 1 из 1
Показать сообщения за:  Поле сортировки  
Начать новую тему Ответить на тему


Сейчас этот форум просматривают: нет зарегистрированных пользователей и гости: 0


Вы не можете начинать темы
Вы не можете отвечать на сообщения
Вы не можете редактировать свои сообщения
Вы не можете удалять свои сообщения
Вы не можете добавлять вложения

Перейти:  
cron