Начать новую тему Ответить на тему
Статистика раздачи
Размер: 374.51 МБ | Добавлен: 01 янв 2020, 22:58 | Скачали: 0
Сидеров: 2  [0 байт/сек]    Личеров: 1  [0 байт/сек]
Пред. тема | След. тема 

Автор
Сообщение

СообщениеДобавлено: 01 янв 2020, 22:58 

Ответить с цитатой 

Gilbert Becaud / Une vie comme un roman
Жанр: French Chanson
Страна-производитель диска: Германия
Год издания диска: 1993
Издатель (лейбл): BMG France
Номер по каталогу: 74321117382
Страна: France
Аудиокодек: FLAC (*.flac)
Тип рипа: image+.cue
Битрейт аудио: lossless
Продолжительность: 62:00
Источник (релизер): собственный диск
Наличие сканов в содержимом раздачи: да
Треклист:
1 Ouverture
2 Quand T'Es Petit Dans le Midi
3 Oh Que Paris C'Est Loin
4 Ma Première Chanson (J'L'Ai Pas Finie)
5 Il Est a Moi (L'Olympia)
6 La Balade Américaine
7 Tu Marches a Broadway
8 Aran (L'Opéra)
9 Et Salut Les Copains
10 La Cabane Blue
11 Mea Culpa
12 La Dame de Saint-Paul
13 Du Sable Dans Les Mains
14 Mon Agenda
15 Une Vie Comme un Torrent
16 Chanter C'Est Ma Liberté
Код:
Exact Audio Copy V0.99 prebeta 4 from 23. January 2008
Отчёт EAC об извлечении, выполненном 26. января 2012, 15:00
Gilbert Bйcaud / Une vie comme un roman
Дисковод: PIONEER DVD-RW  DVR-116D   Adapter: 3  ID: 0
Режим чтения                 : Достоверность
Использование точного потока : Да
Отключение кэша аудио        : Да
Использование указателей C2  : Нет
Коррекция смещения при чтении                     : 96
Способность читать области Lead-in и Lead-out     : Нет
Заполнение пропущенных сэмплов тишиной            : Да
Удаление блоков с тишиной в начале и конце        : Нет
При вычислениях CRC использовались нулевые сэмплы : Да
Интерфейс                                         : Встроенный Win32-интерфейс для Win NT/2000
Выходной формат : Внутренние WAV-операции
Формат сэмплов  : 44.100 Гц; 16 бит; стерео
TOC извлечённого CD
     Трек |   Старт  | Длительность | Начальный сектор | Конечный сектор
    ---------------------------------------------------------------------
       1  |  0:00.33 |    2:23.70   |          33      |      10827
       2  |  2:24.28 |    3:49.30   |       10828      |      28032
       3  |  6:13.58 |    3:04.30   |       28033      |      41862
       4  |  9:18.13 |    3:47.00   |       41863      |      58887
       5  | 13:05.13 |    5:11.55   |       58888      |      82267
       6  | 18:16.68 |    4:18.10   |       82268      |     101627
       7  | 22:35.03 |    4:49.40   |      101628      |     123342
       8  | 27:24.43 |    3:55.40   |      123343      |     141007
       9  | 31:20.08 |    3:26.72   |      141008      |     156529
      10  | 34:47.05 |    3:38.28   |      156530      |     172907
      11  | 38:25.33 |    4:04.10   |      172908      |     191217
      12  | 42:29.43 |    4:27.10   |      191218      |     211252
      13  | 46:56.53 |    3:35.02   |      211253      |     227379
      14  | 50:31.55 |    4:26.73   |      227380      |     247402
      15  | 54:58.53 |    4:01.72   |      247403      |     265549
      16  | 59:00.50 |    2:59.60   |      265550      |     279034
Характеристики диапазона извлечения и сообщения об ошибках
Выбранный диапазон
     Имя файла F:\MUSIC\РИПЫ\GB Une vie\Gilbert Bйcaud - Une vie comme un roman.wav
     Пиковый уровень 97.3 %
     Качество диапазона 99.9 %
     CRC теста 7FE6EE4B
     CRC копии 7FE6EE4B
     Копирование... OK
Ошибок не произошло
Конец отчёта
Код:
REM GENRE "Chanson"
REM DATE 1993
REM DISCID DF0E8810
REM COMMENT "ExactAudioCopy v0.99pb4"
PERFORMER "Gilbert Bйcaud"
TITLE "Une vie comme un roman"
FILE "Gilbert Bйcaud - Une vie comme un roman.flac" WAVE
  TRACK 01 AUDIO
    TITLE "Ouverture"
    PERFORMER "Gilbert Bйcaud"
    INDEX 00 00:00:00
    INDEX 01 00:00:33
  TRACK 02 AUDIO
    TITLE "Quand t'es petit dans le midi"
    PERFORMER "Gilbert Bйcaud"
    INDEX 00 02:20:00
    INDEX 01 02:24:28
  TRACK 03 AUDIO
    TITLE "Oh que Paris est loin"
    PERFORMER "Gilbert Bйcaud"
    INDEX 00 06:06:50
    INDEX 01 06:13:58
  TRACK 04 AUDIO
    TITLE "Ma premiиre chanson (j'l'ai pas finie)"
    PERFORMER "Gilbert Bйcaud"
    INDEX 00 08:48:70
    INDEX 01 09:18:13
  TRACK 05 AUDIO
    TITLE "Il est а moi (l'Olympia)"
    PERFORMER "Gilbert Bйcaud"
    INDEX 00 12:55:45
    INDEX 01 13:05:13
  TRACK 06 AUDIO
    TITLE "La balade amйricaine"
    PERFORMER "Gilbert Bйcaud"
    INDEX 00 18:08:60
    INDEX 01 18:16:68
  TRACK 07 AUDIO
    TITLE "Tu marches а Broadway"
    PERFORMER "Gilbert Bйcaud"
    INDEX 00 22:27:60
    INDEX 01 22:35:03
  TRACK 08 AUDIO
    TITLE "Aran (l'opйra)"
    PERFORMER "Gilbert Bйcaud"
    INDEX 00 26:50:50
    INDEX 01 27:24:43
  TRACK 09 AUDIO
    TITLE "Et salut les copains"
    PERFORMER "Gilbert Bйcaud"
    INDEX 00 31:11:08
    INDEX 01 31:20:08
  TRACK 10 AUDIO
    TITLE "La cabane blue"
    PERFORMER "Gilbert Bйcaud"
    INDEX 00 34:29:43
    INDEX 01 34:47:05
  TRACK 11 AUDIO
    TITLE "Mea culpa"
    PERFORMER "Gilbert Bйcaud"
    INDEX 00 38:24:63
    INDEX 01 38:25:33
  TRACK 12 AUDIO
    TITLE "La dame de Saint-Paul"
    PERFORMER "Gilbert Bйcaud"
    INDEX 00 42:05:50
    INDEX 01 42:29:43
  TRACK 13 AUDIO
    TITLE "Du sable dans les mains"
    PERFORMER "Gilbert Bйcaud"
    INDEX 00 46:20:20
    INDEX 01 46:56:53
  TRACK 14 AUDIO
    TITLE "Mon agenda"
    PERFORMER "Gilbert Bйcaud"
    INDEX 00 50:29:03
    INDEX 01 50:31:55
  TRACK 15 AUDIO
    TITLE "Une vie comme un torrent"
    PERFORMER "Gilbert Bйcaud"
    INDEX 00 54:35:73
    INDEX 01 54:58:53
  TRACK 16 AUDIO
    TITLE "Chanter c'est ma libertй"
    PERFORMER "Gilbert Bйcaud"
    INDEX 00 58:59:45
    INDEX 01 59:00:50
Правила, инструкции, FAQ!!!
Торрент  Добавлен [01 янв 2020, 22:58] Скачать торрент Магнет ссылка
Скачать торрент
[ Размер 15.93 КБ / Просмотров 6 ]

Статус
Проверен 
 
Размер  374.51 МБ
Приватный: Нет (DHT включён)
.torrent скачан  0
 


     Отправить личное сообщение
   
Страница 1 из 1
Показать сообщения за:  Поле сортировки  
Начать новую тему Ответить на тему


Сейчас этот форум просматривают: нет зарегистрированных пользователей и гости: 0


Вы не можете начинать темы
Вы не можете отвечать на сообщения
Вы не можете редактировать свои сообщения
Вы не можете удалять свои сообщения
Вы не можете добавлять вложения

Перейти:  
cron