Начать новую тему Ответить на тему
Статистика раздачи
Размер: 314.69 МБ | Добавлен: 01 янв 2020, 22:47 | Скачали: 0
Сидеров: 0  [0 байт/сек]    Личеров: 0  [0 байт/сек]
Пред. тема | След. тема 

Автор
Сообщение

СообщениеДобавлено: 01 янв 2020, 22:47 

Ответить с цитатой 

Anis / La Chance...
Жанр: French, Chanson francaise, Reggae, Nouvelle scene
Год издания: 2005
Издатель (лейбл): Virgin
Страна: France
Аудиокодек: FLAC (*.flac)
Тип рипа: tracks
Битрейт аудио: lossless
Продолжительность: 52:24
Источник (релизер): интернет
Наличие сканов в содержимом раздачи: да

Треклист:
01 Avec Le Vent
02 Bistro
03 Mon Métro
04 Cergy
05 Intégration
06 J'aurais Voulu Etre Un Mc
07 Peut-Être Bien
08 Pensées Amères Intro
09 Pensées Amères
10 Louise Et Thelma
11 Oisif
12 La Preuve Par 1000 (Mahlich Boy)
13 Le Sommeil
14 Nobody Knows You
15 Reggablues
Код:
AUDIOCHECKER v2.0 beta (build 457) - by Dester - opdester@freemail.hu
~~~~~~~~~~~~~~~~~~~~~~~~~~~~~~~~~~
-=== DO NOT EDIT THIS FILE! ===-
Path: ...\Anis - La Chance - 2005 (FLAC)
01 -=- 01. Anis - Avec Le Vent.wav -=- CDDA (100%)
02 -=- 02. Anis - Bistro.wav -=- CDDA (100%)
03 -=- 03. Anis - Mon Metro.wav -=- CDDA (99%)
04 -=- 04. Anis - Cergy.wav -=- CDDA (100%)
05 -=- 05. Anis - Integration.wav -=- CDDA (100%)
06 -=- 06. Anis - J'aurais Voulu Etre Un Mc.wav -=- CDDA (100%)
07 -=- 07. Anis - Peut-Etre Bien.wav -=- CDDA (100%)
08 -=- 08. Anis - Pensees Ameres Intro.wav -=- CDDA (100%)
09 -=- 09. Anis - Pensees Ameres.wav -=- CDDA (100%)
10 -=- 10. Anis - Louise Et Thelma.wav -=- CDDA (100%)
11 -=- 11. Anis - Oisif.wav -=- CDDA (100%)
12 -=- 12. Anis - La Preuve Par 1000 (Mahlich Boy).wav -=- CDDA (99%)
13 -=- 13. Anis - Le Sommeil.wav -=- CDDA (100%)
14 -=- 14. Anis - Nobody Knows You.wav -=- CDDA (100%)
15 -=- 15. Anis - Reggablues.wav -=- CDDA (100%)
Summary 99.87% CDDA
212321252
Доп. информация: Рип проходит проверку базы Accurate Rip
Код:
[Verification date: 05.03.2014 12:36:21]
[Disc ID: 001e1e52-014ff638-da0c480f]
Track [ CRC    ] Status
 01 [eb126493] (00/12) No matches
 02 [e2e99104] (00/12) No matches
 03 [e0208752] (00/12) No matches
 04 [e1622813] (00/12) No matches
 05 [bc625ad5] (00/12) No matches
 06 [c647b488] (00/12) No matches
 07 [edd588f0] (00/12) No matches
 08 [d8999cdf] (00/11) No matches
 09 [03c358f2] (00/11) No matches
 10 [3d057e9b] (00/11) No matches
 11 [fdc892cf] (00/12) No matches
 12 [5da05804] (00/12) No matches
 13 [4234ccb4] (00/11) No matches
 14 [6396b1dd] (00/12) No matches
 15 [4baf1242] (00/11) No matches
Offsetted by 48:
 01 [ceab36a3] (08/12) Accurately ripped as in pressing(s) #1
 02 [5245de78] (08/12) Accurately ripped as in pressing(s) #1
 03 [871d5442] (08/12) Accurately ripped as in pressing(s) #1
 04 [85d18f9b] (08/12) Accurately ripped as in pressing(s) #1
 05 [689780b5] (08/12) Accurately ripped as in pressing(s) #1
 06 [ba1d1228] (08/12) Partial match to pressing(s) #1
 07 [bb385250] (08/12) Accurately ripped as in pressing(s) #1
 08 [8bee162e] (07/11) Accurately ripped as in pressing(s) #1
 09 [c422ee25] (07/11) Accurately ripped as in pressing(s) #1
 10 [ac2c6e25] (07/11) Accurately ripped as in pressing(s) #1
 11 [6835c6af] (08/12) Accurately ripped as in pressing(s) #1
 12 [adbf63d4] (08/12) Accurately ripped as in pressing(s) #1
 13 [1c610ea4] (07/11) Accurately ripped as in pressing(s) #1
 14 [f33a4fcd] (08/12) Accurately ripped as in pressing(s) #1
 15 [e1454352] (07/11) Accurately ripped as in pressing(s) #1
Track [ CRC32  ] [W/O NULL]
 -- [CA526649] [32CB33F1]
 01 [1746FD58] [F640435D]
 02 [0BF1C804] [F3AC7A93]
 03 [C3DDBEAA] [20A3AE04]
 04 [233564BE] [5FACF011]
 05 [DCB70D5E] [EAA1551E]
 06 [5CC034D3] [27C2F883]
 07 [D0B2F9C8] [6927A7CE]
 08 [B4A6DD61] [D1711300]
 09 [9AECFEA6] [D21DECF9]
 10 [AF1AC5BE] [9FA4E482]
 11 [329CBCA1] [F9425E74]
 12 [5C54A6D9] [F4CDEE0F]
 13 [442EEB43] [0D55985C]
 14 [6E83B718] [EBC16A6E]
 15 [9BA316A9] [48CEDA08]
Рожденный в семье русской матерью и отца-марокканца, Anis рос в местечке Vexin, прежде чем его семья переехала, когда ему было 8 лет, в пригород Парижа Cergy.
Подростком он слушал много блюза и французского шансона: Tom Waits, Bo Diddley, John Lee Hooker, Billie Holiday, Édith Piaf, Colette Magny.
Весной 2005 г. он записал свой первый альбом на студии Gang в Париже. Этот альбом содержал автобиографические тексты, проникнутые самоиронией. В музыкальном плане он представлял собой смесь влияния соул, рэгги и блюза. В октябре 2008г. выпустил третий по счету альбом Rodeo Boulevard.
(Материал взят из Википедии, насколько я правильно смог перевести. Если кто-то сможет что-то добавить или исправить, буду признателен).
Невероятно похожи (по версии Ласт.фм): Volo, Clarika, Camille Bazbaz.
Похожи (по версии Ласт.фм): Sanseverino, Batlik, IZIA, Monsieur Roux, Amandine Bourgeois
Официальный сайт исполнителя: http://www.anis-music.com/virgin/anis/rodeo_boulevard/discographie
Дискография Anis: https://rutracker.org/forum/viewtopic.php?t=3488717
Альбом Anis - Gadjo Decale (2005) в lossless
Правила, инструкции, FAQ!!!
Торрент  Добавлен [01 янв 2020, 22:47] Скачать торрент Магнет ссылка
Скачать торрент
[ Размер 13.83 КБ / Просмотров 4 ]

Статус
Проверен 
 
Размер  314.69 МБ
Приватный: Нет (DHT включён)
.torrent скачан  0
 


     Отправить личное сообщение
   
Страница 1 из 1
Показать сообщения за:  Поле сортировки  
Начать новую тему Ответить на тему


Сейчас этот форум просматривают: нет зарегистрированных пользователей и гости: 0


Вы не можете начинать темы
Вы не можете отвечать на сообщения
Вы не можете редактировать свои сообщения
Вы не можете удалять свои сообщения
Вы не можете добавлять вложения

Перейти:  
cron