Начать новую тему Ответить на тему
Статистика раздачи
Размер: 2.18 ГБ | Добавлен: 01 янв 2020, 22:53 | Скачали: 0
Сидеров: 0  [0 байт/сек]    Личеров: 0  [0 байт/сек]
Пред. тема | След. тема 

Автор
Сообщение

СообщениеДобавлено: 01 янв 2020, 22:53 

Ответить с цитатой 

-M- (Matthieu Chedid) / Discography
Жанр: (French, Chanson francaise, Nouvelle scene, Rock)
Страна-производитель диска: France
Год издания: 1997-2009
Страна: France
Аудиокодек: APE (*.ape)
Тип рипа: image+.cue
Битрейт аудио: lossless
Продолжительность: 3.12.55
Источник (релизер): собственные CD
Наличие сканов в содержимом раздачи: да
Лучший французский исполнитель 2000 и 2005 годов,
обладатель премий за лучший альбом (Qui de nous deux) 2003 года,
а так же многочисленных премий за лучшие:
концерты, видеоклипы, саундтреки и т.д и т.п.
Мастер перевоплощения, авангардист и модернист...
А главное - ни на кого не похожий французский музыкант.
Для любителей французской оригинальной музыки.
В раздаче: полная альбомная дискография и первый Live музыканта.
Треклист:

1. La Fleur 2:59
2. Le Baptême 4:06
3. L’Amour ma thématique 2:50
4. Nostalgic du cool 3:41
5. Manque de Q 3:56
6. Je suis une cigarette 3:36
7. La mort de l'âme 2:16
8. Pick pocket 3:33
9. Les Acariens 4:52
10. Le rose pourpre du coeur 3:13
11. Coup de vent 3:40
12. Le temps mue 3:32
13. Machistador 3:46
14. Souviens-toi 3:57
15. Souvenir du futur 3:57
16. Machistador (extended) 8:04
17. Céline attendue 13:11
Продолжительность:1.11.54

1. Monde virtuel
2. Je dis aime
3. Onde sensuelle
4. À celle qui dure
5. Faut oublier
6. Le Festival de connes
7. Le Mec hamac
8. Close to Me
9. Émilie 1000 Volts
10. Qui est le plus fragile
11. Le Complexe du corn flakes
12. Au lieu du crime
13. Bonoboo
14. Le Commun des motels
15. Mama Sam
Продолжительность:52.12

CD 1
01 Prelude
02 Je Dis Aime
03 Monde Virtuel
04 Faut Oublier
05 Souvenir Du Futur
06 L'amour Ma Thematique
07 Le Mec Hamac
08 La Fleur
09 Onde Sensuelle
10 Le Bapteme
11 Le Festival De Connes
12 Au Suivant
13 Le Blues De Soustons
Продолжительность:54.22
CD2
01 Jam Man
02 Le Complexe Du Corn Flakes
03 Cardiac Danse
04 A Celle Qui Dure
05 Close To Me
06 Mama Sam
07 Bonoboo
08 Machistador
09 Nostalgic Du Cool
10 Je Dis...
Продолжительность:56.23

01 Tapis volant 1
02 Slide melody
03 Les saules
04 L'automat
05 Ricken
06 Stan est stone
07 Au kazoo
08 Jam a la mer
09 Tapis volant 2
10 Coup d'trash
11 La nebuleuse
Продолжительность:39.35

1. Mon ego 2:31
2. La Bonne Étoilee 3:37
3. Sous ta peau 3:44
4. À tes souhaits 2:59
5. Qui de nous deux 3:45
6. Ma mélodie 3:33
7. Quand je vais chez elle 3:05
8. La Corde sensible 3:31
9. Je me démasque 3:39
10. C’est pas ta faute 3:46
11. Gimmick 3:12
12. Le Radeau 3:24
13. Psyko bug 3:35
14. Peau de fleur 4:11
15. Ton écho 4:50
Продолжительность:52.26

1. Mister Mystère 3:27
2. Phébus 2:38
3. Est-ce que c’est ça 3:23
4. Le Roi des ombres 2:57
5. Tanagra 3:40
6. L'Élixir 3:34
7. Ça sonne faux 1:34
8. Destroy 3:26
9. Semaine 2:32
10. Amssétou 3:06
11. Tout sauf toi 2:40
12. Hold Up 4:15
13. Délivre 3:06
Продолжительность:40.52
Exact Audio Copy V0.99 prebeta 5 from 4. May 2009
Отчёт EAC об извлечении, выполненном 3. января 2011, 1:42
M / Le bapteme
Дисковод: ASUS DRW-24B1ST Adapter: 3 ID: 0
Режим чтения : Достоверность
Использование точного потока : Да
Отключение кэша аудио : Да
Использование указателей C2 : Нет
Коррекция смещения при чтении : 6
Способность читать области Lead-in и Lead-out : Нет
Заполнение пропущенных сэмплов тишиной : Да
Удаление блоков с тишиной в начале и конце : Нет
При вычислениях CRC использовались нулевые сэмплы : Да
Интерфейс : Встроенный Win32-интерфейс для Win NT/2000
Выходной формат : Внутренние WAV-операции
Формат сэмплов : 44.100 Гц; 16 бит; стерео
TOC извлечённого CD
Трек | Старт | Длительность | Начальный сектор | Конечный сектор
---------------------------------------------------------------------
1 | 0:00.32 | 2:59.60 | 32 | 13516
2 | 3:00.17 | 4:06.35 | 13517 | 32001
3 | 7:06.52 | 2:50.08 | 32002 | 44759
4 | 9:56.60 | 3:41.17 | 44760 | 61351
5 | 13:38.02 | 3:56.55 | 61352 | 79106
6 | 17:34.57 | 3:36.58 | 79107 | 95364
7 | 21:11.40 | 2:16.07 | 95365 | 105571
8 | 23:27.47 | 3:33.50 | 105572 | 121596
9 | 27:01.22 | 4:52.70 | 121597 | 143566
10 | 31:54.17 | 3:13.53 | 143567 | 158094
11 | 35:07.70 | 3:40.25 | 158095 | 174619
12 | 38:48.20 | 3:32.42 | 174620 | 190561
13 | 42:20.62 | 3:46.13 | 190562 | 207524
14 | 46:07.00 | 0:34.45 | 207525 | 210119
15 | 46:41.45 | 3:57.07 | 210120 | 227901
16 | 50:38.52 | 8:04.50 | 227902 | 264251
17 | 58:43.27 | 13:11.50 | 264252 | 323626
Характеристики диапазона извлечения и сообщения об ошибках
Выбранный диапазон
Имя файла J:\TORRENTS\LOSSLESS\-M-\-M- Le Barteme 1997\M - Le baptкme.wav
Пиковый уровень 98.8 %
Качество диапазона 100.0 %
CRC теста 0870910D
CRC копии 0870910D
Копирование... OK
Ошибок не произошло
AccurateRip: сводка
Трек 1 точное извлечение (доверие 28) [1385C743]
Трек 2 точное извлечение (доверие 29) [C8CFB021]
Трек 3 точное извлечение (доверие 29) [9B5475A7]
Трек 4 точное извлечение (доверие 31) [F528BF17]
Трек 5 точное извлечение (доверие 29) [3EA93C16]
Трек 6 точное извлечение (доверие 30) [6BACE5C8]
Трек 7 точное извлечение (доверие 30) [2E05A1A5]
Трек 8 точное извлечение (доверие 30) [3E4766F4]
Трек 9 точное извлечение (доверие 30) [0D1164CB]
Трек 10 точное извлечение (доверие 30) [5597841E]
Трек 11 точное извлечение (доверие 30) [0736FD86]
Трек 12 точное извлечение (доверие 30) [7F8DCAEC]
Трек 13 точное извлечение (доверие 28) [62008274]
Трек 14 точное извлечение (доверие 29) [332ACBCE]
Трек 15 точное извлечение (доверие 28) [A82EF210]
Трек 16 точное извлечение (доверие 28) [CA72380A]
Трек 17 точное извлечение (доверие 26) [2F6A0788]
Все треки извлечены точно
Конец отчёта
Exact Audio Copy V0.99 prebeta 5 from 4. May 2009
Отчёт EAC об извлечении, выполненном 2. января 2011, 21:13
-M- / Je dis Aime
Дисковод: ASUS DRW-24B1ST Adapter: 3 ID: 0
Режим чтения : Достоверность
Использование точного потока : Да
Отключение кэша аудио : Да
Использование указателей C2 : Нет
Коррекция смещения при чтении : 6
Способность читать области Lead-in и Lead-out : Нет
Заполнение пропущенных сэмплов тишиной : Да
Удаление блоков с тишиной в начале и конце : Нет
При вычислениях CRC использовались нулевые сэмплы : Да
Интерфейс : Встроенный Win32-интерфейс для Win NT/2000
Выходной формат : Внутренние WAV-операции
Формат сэмплов : 44.100 Гц; 16 бит; стерео
TOC извлечённого CD
Трек | Старт | Длительность | Начальный сектор | Конечный сектор
---------------------------------------------------------------------
1 | 0:00.00 | 3:08.70 | 0 | 14169
2 | 3:08.70 | 3:56.27 | 14170 | 31896
3 | 7:05.22 | 3:04.40 | 31897 | 45736
4 | 10:09.62 | 3:45.40 | 45737 | 62651
5 | 13:55.27 | 3:09.38 | 62652 | 76864
6 | 17:04.65 | 3:20.20 | 76865 | 91884
7 | 20:25.10 | 3:27.12 | 91885 | 107421
8 | 23:52.22 | 3:59.73 | 107422 | 125419
9 | 27:52.20 | 2:39.32 | 125420 | 137376
10 | 30:31.52 | 2:55.73 | 137377 | 150574
11 | 33:27.50 | 4:52.20 | 150575 | 172494
12 | 38:19.70 | 4:14.67 | 172495 | 191611
13 | 42:34.62 | 3:07.03 | 191612 | 205639
14 | 45:41.65 | 3:15.20 | 205640 | 220284
15 | 48:57.10 | 3:15.30 | 220285 | 234939
Характеристики диапазона извлечения и сообщения об ошибках
Выбранный диапазон
Имя файла J:\TORRENTS\LOSSLESS\-M-\-M- Je dis Aime 1999\-M- - Je dis Aime.wav
Пиковый уровень 100.0 %
Качество диапазона 100.0 %
CRC теста 7DD7D091
CRC копии 7DD7D091
Копирование... OK
Ошибок не произошло
AccurateRip: сводка
Трек 1 точное извлечение (доверие 51) [44958555]
Трек 2 точное извлечение (доверие 53) [269C77BB]
Трек 3 точное извлечение (доверие 51) [8AEFE660]
Трек 4 точное извлечение (доверие 52) [422787EB]
Трек 5 точное извлечение (доверие 53) [B190FDF4]
Трек 6 точное извлечение (доверие 53) [8C1FE771]
Трек 7 точное извлечение (доверие 53) [9A7AB590]
Трек 8 точное извлечение (доверие 53) [BAB8290F]
Трек 9 точное извлечение (доверие 53) [60DBA459]
Трек 10 точное извлечение (доверие 54) [AA2290EB]
Трек 11 точное извлечение (доверие 51) [4D0EB496]
Трек 12 точное извлечение (доверие 52) [9E2D54F4]
Трек 13 точное извлечение (доверие 51) [BFE89C83]
Трек 14 точное извлечение (доверие 53) [3F6B9977]
Трек 15 точное извлечение (доверие 51) [234DAD64]
Все треки извлечены точно
Конец отчёта
Exact Audio Copy V0.99 prebeta 5 from 4. May 2009
Отчёт EAC об извлечении, выполненном 3. января 2011, 3:46
-M- / Le Tour de -M- CD1
Дисковод: ASUS DRW-24B1ST Adapter: 3 ID: 0
Режим чтения : Достоверность
Использование точного потока : Да
Отключение кэша аудио : Да
Использование указателей C2 : Нет
Коррекция смещения при чтении : 6
Способность читать области Lead-in и Lead-out : Нет
Заполнение пропущенных сэмплов тишиной : Да
Удаление блоков с тишиной в начале и конце : Нет
При вычислениях CRC использовались нулевые сэмплы : Да
Интерфейс : Встроенный Win32-интерфейс для Win NT/2000
Выходной формат : Внутренние WAV-операции
Формат сэмплов : 44.100 Гц; 16 бит; стерео
TOC извлечённого CD
Трек | Старт | Длительность | Начальный сектор | Конечный сектор
---------------------------------------------------------------------
1 | 0:00.00 | 2:53.03 | 0 | 12977
2 | 2:53.03 | 4:30.39 | 12978 | 33266
3 | 7:23.42 | 4:25.61 | 33267 | 53202
4 | 11:49.28 | 4:32.27 | 53203 | 73629
5 | 16:21.55 | 6:44.37 | 73630 | 103966
6 | 23:06.17 | 5:15.58 | 103967 | 127649
7 | 28:22.00 | 3:18.47 | 127650 | 142546
8 | 31:40.47 | 2:37.58 | 142547 | 154379
9 | 34:18.30 | 4:04.73 | 154380 | 172752
10 | 38:23.28 | 5:38.43 | 172753 | 198145
11 | 44:01.71 | 3:35.35 | 198146 | 214305
12 | 47:37.31 | 3:12.72 | 214306 | 228777
13 | 50:50.28 | 3:32.38 | 228778 | 244715
Характеристики диапазона извлечения и сообщения об ошибках
Выбранный диапазон
Имя файла J:\TORRENTS\LOSSLESS\-M-\-M- Le Tour De -M- 2001\cd 1\-M- - Le Tour de -M- CD1.wav
Пиковый уровень 100.0 %
Качество диапазона 99.9 %
CRC теста FDC5E90C
CRC копии FDC5E90C
Копирование... OK
Ошибок не произошло
AccurateRip: сводка
Трек 1 точное извлечение (доверие 36) [71FDFDED]
Трек 2 точное извлечение (доверие 37) [E7BB98FE]
Трек 3 точное извлечение (доверие 37) [670C2BB6]
Трек 4 точное извлечение (доверие 36) [E2887357]
Трек 5 точное извлечение (доверие 37) [2ADEE24F]
Трек 6 точное извлечение (доверие 36) [03D4F6A2]
Трек 7 точное извлечение (доверие 36) [15305A18]
Трек 8 точное извлечение (доверие 37) [60D5417B]
Трек 9 точное извлечение (доверие 37) [5B7431B8]
Трек 10 точное извлечение (доверие 36) [8AE8C2FF]
Трек 11 точное извлечение (доверие 36) [F8028EEE]
Трек 12 точное извлечение (доверие 37) [BB9B0354]
Трек 13 точное извлечение (доверие 37) [200B4688]
Все треки извлечены точно
Конец отчёта
Exact Audio Copy V0.99 prebeta 5 from 4. May 2009
Отчёт EAC об извлечении, выполненном 3. января 2011, 4:12
-M- / Le Tour de -M- CD2
Дисковод: ASUS DRW-24B1ST Adapter: 3 ID: 0
Режим чтения : Достоверность
Использование точного потока : Да
Отключение кэша аудио : Да
Использование указателей C2 : Нет
Коррекция смещения при чтении : 6
Способность читать области Lead-in и Lead-out : Нет
Заполнение пропущенных сэмплов тишиной : Да
Удаление блоков с тишиной в начале и конце : Нет
При вычислениях CRC использовались нулевые сэмплы : Да
Интерфейс : Встроенный Win32-интерфейс для Win NT/2000
Выходной формат : Внутренние WAV-операции
Формат сэмплов : 44.100 Гц; 16 бит; стерео
TOC извлечённого CD
Трек | Старт | Длительность | Начальный сектор | Конечный сектор
---------------------------------------------------------------------
1 | 0:00.00 | 2:26.13 | 0 | 10962
2 | 2:26.13 | 5:32.03 | 10963 | 35865
3 | 7:58.16 | 2:34.70 | 35866 | 47485
4 | 10:33.11 | 7:28.05 | 47486 | 81090
5 | 18:01.16 | 3:22.62 | 81091 | 96302
6 | 21:24.03 | 5:02.37 | 96303 | 118989
7 | 26:26.40 | 6:49.00 | 118990 | 149664
8 | 33:15.40 | 11:21.23 | 149665 | 200762
9 | 44:36.63 | 3:05.28 | 200763 | 214665
10 | 47:42.16 | 8:41.13 | 214666 | 253753
Характеристики диапазона извлечения и сообщения об ошибках
Выбранный диапазон
Имя файла J:\TORRENTS\LOSSLESS\-M-\-M- Le Tour De -M- 2001\cd2\-M- - Le Tour de -M- CD2.wav
Пиковый уровень 100.0 %
Качество диапазона 99.9 %
CRC теста 9E59D01C
CRC копии 9E59D01C
Копирование... OK
Ошибок не произошло
AccurateRip: сводка
Трек 1 точное извлечение (доверие 35) [2769D067]
Трек 2 точное извлечение (доверие 34) [5D5474C9]
Трек 3 точное извлечение (доверие 34) [E97C2DAE]
Трек 4 точное извлечение (доверие 34) [8673356A]
Трек 5 точное извлечение (доверие 34) [ABAABD8B]
Трек 6 точное извлечение (доверие 34) [3D8488C4]
Трек 7 точное извлечение (доверие 33) [7EDAEA34]
Трек 8 точное извлечение (доверие 33) [554C89E2]
Трек 9 точное извлечение (доверие 34) [05C61657]
Трек 10 точное извлечение (доверие 32) [1CEC7C22]
Все треки извлечены точно
Конец отчёта
Exact Audio Copy V0.99 prebeta 5 from 4. May 2009
Отчёт EAC об извлечении, выполненном 3. января 2011, 2:50
-M- / Labo -M-
Дисковод: ASUS DRW-24B1ST Adapter: 3 ID: 0
Режим чтения : Достоверность
Использование точного потока : Да
Отключение кэша аудио : Да
Использование указателей C2 : Нет
Коррекция смещения при чтении : 6
Способность читать области Lead-in и Lead-out : Нет
Заполнение пропущенных сэмплов тишиной : Да
Удаление блоков с тишиной в начале и конце : Нет
При вычислениях CRC использовались нулевые сэмплы : Да
Интерфейс : Встроенный Win32-интерфейс для Win NT/2000
Выходной формат : Внутренние WAV-операции
Формат сэмплов : 44.100 Гц; 16 бит; стерео
TOC извлечённого CD
Трек | Старт | Длительность | Начальный сектор | Конечный сектор
---------------------------------------------------------------------
1 | 0:00.00 | 3:50.47 | 0 | 17296
2 | 3:50.47 | 0:49.28 | 17297 | 20999
3 | 4:40.00 | 2:37.55 | 21000 | 32829
4 | 7:17.55 | 3:14.45 | 32830 | 47424
5 | 10:32.25 | 2:31.38 | 47425 | 58787
6 | 13:03.63 | 5:01.63 | 58788 | 81425
7 | 18:05.51 | 2:02.12 | 81426 | 90587
8 | 20:07.63 | 4:03.51 | 90588 | 108863
9 | 24:11.39 | 5:25.71 | 108864 | 133309
10 | 29:37.35 | 1:57.03 | 133310 | 142087
11 | 31:34.38 | 6:55.67 | 142088 | 173279
12 | 41:02.30 | 32:55.45 | 184680 | 332849
Характеристики диапазона извлечения и сообщения об ошибках
Выбранный диапазон
Имя файла J:\TORRENTS\LOSSLESS\-M-\-M- Labo 2003\-M- - Labo -M-.wav
Пиковый уровень 99.3 %
Качество диапазона 100.0 %
CRC теста 1F439850
CRC копии 1F439850
Копирование... OK
Ошибок не произошло
AccurateRip: сводка
Трек 1 точное извлечение (доверие 4) [983B49D0]
Трек 2 точное извлечение (доверие 5) [9C2449AE]
Трек 3 точное извлечение (доверие 4) [94A8E637]
Трек 4 точное извлечение (доверие 4) [FF223745]
Трек 5 точное извлечение (доверие 5) [BF102E80]
Трек 6 точность не определена (достоверность 2) [222CD167], AccurateRip вернул [B94CD27D]
Трек 7 точное извлечение (доверие 5) [1EA3EA86]
Трек 8 точное извлечение (доверие 2) [EACF0DC7]
Трек 9 нет в базе данных
Трек 10 точное извлечение (доверие 5) [1E53206D]
Трек 11 точность не определена (достоверность 5) [54553B5E], AccurateRip вернул [5F18D331]
8 трек(и) скопированы точно
2 трек(и) не удалось проверить на точность
1 трек(и) не содержатся в базе AccurateRip
Некоторые треки не прошли проверку на точность
Конец отчёта
Exact Audio Copy V0.99 prebeta 5 from 4. May 2009
Отчёт EAC об извлечении, выполненном 3. января 2011, 2:21
-M- / Qui de nous deux
Дисковод: ASUS DRW-24B1ST Adapter: 3 ID: 0
Режим чтения : Достоверность
Использование точного потока : Да
Отключение кэша аудио : Да
Использование указателей C2 : Нет
Коррекция смещения при чтении : 6
Способность читать области Lead-in и Lead-out : Нет
Заполнение пропущенных сэмплов тишиной : Да
Удаление блоков с тишиной в начале и конце : Нет
При вычислениях CRC использовались нулевые сэмплы : Да
Интерфейс : Встроенный Win32-интерфейс для Win NT/2000
Выходной формат : Внутренние WAV-операции
Формат сэмплов : 44.100 Гц; 16 бит; стерео
TOC извлечённого CD
Трек | Старт | Длительность | Начальный сектор | Конечный сектор
---------------------------------------------------------------------
1 | 0:00.00 | 2:30.41 | 0 | 11290
2 | 2:30.41 | 3:37.45 | 11291 | 27610
3 | 6:08.11 | 3:45.24 | 27611 | 44509
4 | 9:53.35 | 2:58.55 | 44510 | 57914
5 | 12:52.15 | 3:45.41 | 57915 | 74830
6 | 16:37.56 | 3:33.38 | 74831 | 90843
7 | 20:11.19 | 3:05.51 | 90844 | 104769
8 | 23:16.70 | 3:31.58 | 104770 | 120652
9 | 26:48.53 | 3:39.15 | 120653 | 137092
10 | 30:27.68 | 3:46.16 | 137093 | 154058
11 | 34:14.09 | 3:12.34 | 154059 | 168492
12 | 37:26.43 | 3:24.41 | 168493 | 183833
13 | 40:51.09 | 2:35.05 | 183834 | 195463
14 | 43:26.14 | 4:11.69 | 195464 | 214357
15 | 47:38.08 | 4:48.03 | 214358 | 235960
16 | 54:58.11 | 9:20.05 | 247361 | 289365
Характеристики диапазона извлечения и сообщения об ошибках
Выбранный диапазон
Имя файла J:\TORRENTS\LOSSLESS\-M-\-M- Qui de nous deux 2003\-M- - Qui de nous deux.wav
Пиковый уровень 99.9 %
Качество диапазона 100.0 %
CRC теста F604FADF
CRC копии F604FADF
Копирование... OK
Ошибок не произошло
AccurateRip: сводка
Трек 1 точное извлечение (доверие 68) [53B00DA3]
Трек 2 точное извлечение (доверие 69) [AEF8BD6B]
Трек 3 точное извлечение (доверие 69) [CDCA5AC4]
Трек 4 точное извлечение (доверие 69) [FD162AA5]
Трек 5 точное извлечение (доверие 69) [4B39D1D1]
Трек 6 точное извлечение (доверие 68) [ED7883C5]
Трек 7 точное извлечение (доверие 69) [914701C5]
Трек 8 точное извлечение (доверие 69) [F8E5B0EB]
Трек 9 точное извлечение (доверие 68) [679256FA]
Трек 10 точное извлечение (доверие 69) [D5B2792E]
Трек 11 точное извлечение (доверие 68) [A17555FF]
Трек 12 точное извлечение (доверие 69) [C9315A17]
Трек 13 точное извлечение (доверие 69) [24A02692]
Трек 14 точное извлечение (доверие 69) [C4F69388]
Трек 15 точное извлечение (доверие 69) [ED0271F4]
Все треки извлечены точно
Конец отчёта
Exact Audio Copy V0.99 prebeta 5 from 4. May 2009
Отчёт EAC об извлечении, выполненном 3. января 2011, 3:26
-M- / Mister Mystиre
Дисковод: ASUS DRW-24B1ST Adapter: 3 ID: 0
Режим чтения : Достоверность
Использование точного потока : Да
Отключение кэша аудио : Да
Использование указателей C2 : Нет
Коррекция смещения при чтении : 6
Способность читать области Lead-in и Lead-out : Нет
Заполнение пропущенных сэмплов тишиной : Да
Удаление блоков с тишиной в начале и конце : Нет
При вычислениях CRC использовались нулевые сэмплы : Да
Интерфейс : Встроенный Win32-интерфейс для Win NT/2000
Выходной формат : Внутренние WAV-операции
Формат сэмплов : 44.100 Гц; 16 бит; стерео
TOC извлечённого CD
Трек | Старт | Длительность | Начальный сектор | Конечный сектор
---------------------------------------------------------------------
1 | 0:00.00 | 3:28.64 | 0 | 15663
2 | 3:28.64 | 2:39.24 | 15664 | 27612
3 | 6:08.13 | 3:24.73 | 27613 | 42985
4 | 9:33.11 | 2:57.12 | 42986 | 56272
5 | 12:30.23 | 3:41.41 | 56273 | 72888
6 | 16:11.64 | 3:36.01 | 72889 | 89089
7 | 19:47.65 | 1:37.10 | 89090 | 96374
8 | 21:25.00 | 3:29.05 | 96375 | 112054
9 | 24:54.05 | 2:35.44 | 112055 | 123723
10 | 27:29.49 | 3:08.12 | 123724 | 137835
11 | 30:37.61 | 2:43.56 | 137836 | 150116
12 | 33:21.42 | 4:17.51 | 150117 | 169442
13 | 37:39.18 | 3:12.70 | 169443 | 183912
14 | 43:24.13 | 6:38.59 | 195313 | 225221
Характеристики диапазона извлечения и сообщения об ошибках
Выбранный диапазон
Имя файла J:\TORRENTS\LOSSLESS\-M-\-M- Mister Mystere 2009\-M- - Mister Mystиre.wav
Пиковый уровень 100.0 %
Качество диапазона 100.0 %
CRC теста 5FB44A83
CRC копии 5FB44A83
Копирование... OK
Ошибок не произошло
AccurateRip: сводка
Трек 1 точное извлечение (доверие 24) [7F677516]
Трек 2 точное извлечение (доверие 23) [97E431A2]
Трек 3 точное извлечение (доверие 24) [33EA2885]
Трек 4 точное извлечение (доверие 23) [E6F677A1]
Трек 5 точное извлечение (доверие 22) [A5B86070]
Трек 6 точное извлечение (доверие 22) [3276DAE2]
Трек 7 точное извлечение (доверие 23) [CBFEEA7B]
Трек 8 точное извлечение (доверие 23) [E293ABDA]
Трек 9 точное извлечение (доверие 24) [B824B851]
Трек 10 точное извлечение (доверие 24) [9442AF53]
Трек 11 точное извлечение (доверие 23) [E9B91C4B]
Трек 12 точное извлечение (доверие 22) [B48FF3B1]
Трек 13 точное извлечение (доверие 23) [26A5A614]
Все треки извлечены точно
Конец отчёта
Матье Шедид — сын французского певца Луи Шедида, и внук писательницы и поэтессы Андре Шедид, которая написала для него несколько песен. Его сестра — режиссёр музыкальных концертов и видео Эмили Шедид.
Шедид — талантливый мультиинструменталист. В 1978 году, в возрасте шести лет, Матье начал петь в хоре его отца вместе с сестрой, Эмили. В возрасте 20 лет, будучи подростком, Шедид основывает несколько кратковременых групп, таких как «Mat Mat», «Les bébés fous» и «Les poissons rouges». Он сотрудничает со многими художниками, как на сцене и в студии звукозаписи. В начале своей сольной карьеры Матье разогревал концерты группы «Texas».
-M-
Шедид придумывает персонажа по имени -M- в ярких костюмах (в основном монохромные костюмы с тонкими брюками и длинные жакеты с остроконечными воротниками) и причёской в форме буквы М, как средство преодоления своей застенчивости на сцене, а также как способ дистанцироваться от его работы (что-то вроде Зигги Стардаста у Дэвида Боуи). Псевдоним происходит от первой буквы имени Матье, но также это являестя намёком на французское слово Aime, что означает любовь. Сам Шедид говорит, что -M- является супергероем. Иногда перед концертом он выходит на сцену в джинсах и свитере говоря: «Я хочу с вами поздороваться сейчас, пока я Матье, пока моя причёска не готова и пока фрак висит на стуле. Через несколько минут вы про меня и не вспомните, всё ваше внимание будет устремлено на супер-героя -M-».
«Le Baptême»
В 1997 выходит «Le Baptême» — его первый сольный альбом альбом с персонажем -M-. Именно этот персонаж позволяет Матье «оторваться» и выразить целый мир, наполненный искренностью. При помощи созданных им сцен, он довольно быстро приобретает популярность — от маленьких залов к первым партиям. Часто он выступает в одиночестве со своей гитарой, первый истинный успех приходит к нему с песней «Machistador». Матье легко создаёт реальный контакт со своей аудиторией, смеясь и шутя вместе с поклонниками и его энтузиазм тепло принимается аудиторией.
«Je dis aime»
После сотрудничества с Ванессой Паради, в 1999 выходит второй его альбом «Je dis aime». Альбом включает в себя 15 композиций («Je dis aime», «Onde sensuelle», «Mama Sam» и многие другие стали хитами) и там же он перепевает «Close to me» (группа «The Cure»). Альбом расходится более чем в 200 000 экземплярах. На сцене ему часто аккомпанируют ударник Сирил Атеф, виолончелист и басист Винсент Сегал, и DJ Шалом. Даваемые концерты значительно усиливают его успех. Он всегда выступает в своем образе, что превращает его концерты в целые спектакли — он делится с людьми своим персонажем — -M-. Сцена украшена кислотными цветами и всякими штуками, такое ощущение, что он принёс всё это у себя с чердака. Он общается с публикой на равных, устраивает во время концерта дьявольские гитарные соло (всё же в первую очередь Матье — гитарист, он поклонник Джимми Хендрикса), и такой фейерверк эмоций не может оставить зрителя равнодушным. Более того, зритель не остается зрителем, он всегда участник и соучастник действа.
«Labo M» и «Qui de nous deux»
В 2003 выходит исключительно инструментальный экспериментальный диск «Labo M». Отшлифовав этот альбом во время короткого весеннего турне, осенью 2003 года он выпускает альбом «Qui de nous deux». Этот альбом, более нежный, был записан в честь рождения его дочки Билли, для которой была создана специальная гитара — вся розовая.[1] Следующее турне прошло с ошеломительным успехом. К музыкантам присоединяется гитарист Себастьен Мартель. Заканчивается турне в Лондоне, уже побывав во всех больших залах Франции и на большинстве больших франкофонных фестивалей. CD/DVD Live этого турне выходит в конце 2005 года и включает в себя, в частности, ранее не издававшуюся песню «En tête a tête».
«Mister Mystère»
Ещё за год до выхода нового студийного альбома «Mister Mystère» ходили слухи, что Шедид решил отказаться от характера -M-, чтобы выступать под своим настоящим именем.[2] Альбом, однако, был выпущен под авторством -M-, но в буклет к нему были включены фотографии певца без диких костюмов и волос, связанные с характером -M-, ярко-розовый сюртук он сменил на чёрно-белый костюм. Первый клип, «Le Roi Des Ombres», показывает как Шедид сжигает крошечное чучело своего альтер эго -M-. В следующих клипах — «Est-ce que c’est ça?», «Mister Mystère» и «Amssétou» (режиссёром которых стал Гийом Кане) музыкант предстаёт либо в своём новом монохромной образе, либо совсем без грима и особенного наряда. Тур в поддержку альбома стартует в 2009, Винсент Сегал и Себастьен Мартель, к сожалению, не смогли принять в нём участие, но на помощь музыканту пришла его семья. Год спустя выходит live этого тура — «Les Saisons de Passage».
Настоящее время
Матье Шедид выступил в роли композитора в мультфильме Бибо Бержерона «Монстр в Париже», а также озвучил одного из основных персонажей.[3] В ноябре 2011 вышла книга о Матье — «Le Livre Extraordinaire de -M-» («Книга необыкновенного -М-»), написанная его старым другом — фотографом Лизой Роуз[4]. К ней прилагаются разные архивные фотографии музыканта, слайды, плакаты, сценически очки персонажа -М-, а также новая песня — «Si Si No No». По этому поводу был дан небольшой частный концерт, на котором среди гостей, помимо прочих, были друзья Шедида Артур Аш и Ванесса Паради.[5] На новую песню вскоре вышло видео.
P.S.
Данный материал предоставлен из собственных лицензированных изданий, и предназначен ИСКЛЮЧИТЕЛЬНО для ознакомления и общего развития музыкальных вкусов народонаселения . После знакомства с данной информацией рекомендуется купить лицензионные, а лучше фирменные носители, (если таковые имеются в природе ), а так же незамедлительно удалить данную информацию из своего компьютера!
Франция:
Robert - Discography (20 CD) - 1993-2009, APE (image+.cue), lossless https://rutracker.org/forum/viewtopic.php?t=2860364
Robert - Discography (8 CD) MP3 https://rutracker.org/forum/viewtopic.php?t=1356010
Robert - Les Clips https://rutracker.org/forum/viewtopic.php?t=1708017
Robert - Le Tour de France - Live DVD https://rutracker.org/forum/viewtopic.php?t=3522089
Robert - Ange et Démon à l'Olympia - Live DVD https://rutracker.org/forum/viewtopic.php?t=3475171
Robert - Haute Couture - Live DVD https://rutracker.org/forum/viewtopic.php?t=1354536
Robert - A La Sigale - Live DVD https://rutracker.org/forum/viewtopic.php?t=1617855
Robert - Bonus DVD https://rutracker.org/forum/viewtopic.php?t=1474481
Robert - Minus https://rutracker.org/forum/viewtopic.php?p=20525849#20525849
Robert - Retrospectives (Volume 1) DVD https://rutracker.org/forum/viewtopic.php?t=3539390
Robert - Retrospectives (Volume 2) DVD https://rutracker.org/forum/viewtopic.php?t=3638043
Ysa Ferrer - Discography – 1995-2010 lossless https://rutracker.org/forum/viewtopic.php?t=2110656
Kelly Joyce – 2 albums + bonus song mp3 https://rutracker.org/forum/viewtopic.php?t=1306785
Guesch Patti – Dernieres nouvelles DVD https://rutracker.org/forum/viewtopic.php?t=1353555
Guesch Patti – Discography lossless https://rutracker.org/forum/viewtopic.php?t=1738407
Catherine Ringer – Chante Les Rita Mitsouko DVD https://rutracker.org/forum/viewtopic.php?t=1700334
Les Rita Mitsouko – Discography lossless https://rutracker.org/forum/viewtopic.php?t=1711130
Les Rita Mitsouko – Bestov VIDEO DVD https://rutracker.org/forum/viewtopic.php?t=2336049
Amanda Lear - Discography (31 CD) - 1977-2010; lossless https://rutracker.org/forum/viewtopic.php?t=3136306
Amanda Lear – Discography 29 CD mp3 https://rutracker.org/forum/viewtopic.php?t=1613839
Jane Birkin – Rendez-Vous Avec Jane DVD https://rutracker.org/forum/viewtopic.php?t=1828979
Nathalie Cardone – Discography lossless https://rutracker.org/forum/viewtopic.php?p=28381703#28381703
Belle Epoque & Evelyne Lenton - Discography - 5 albums https://rutracker.org/forum/viewtopic.php?p=28212344#28212344
-M- (Matthieu Chedid) - Discography - 1997-2009, lossless https://rutracker.org/forum/viewtopic.php?t=4009917
Италия:
Loredana Berte – 7 albums mp3 https://rutracker.org/forum/viewtopic.php?t=1341867
Loredana Berte – 17 albums lossless https://rutracker.org/forum/viewtopic.php?t=1838509
Raffaella Carra – 7 albums lossless https://rutracker.org/forum/viewtopic.php?t=1763249
Mina – Mina in Studio DVD https://rutracker.org/forum/viewtopic.php?t=1968299
Mina – 8 albums lossless https://rutracker.org/forum/viewtopic.php?t=2000070
Испания:
Amparanoia & Amparo Sanchez - Discography lossless https://rutracker.org/forum/viewtopic.php?t=3733409
Amparanoia – 3 альбома https://rutracker.org/forum/viewtopic.php?t=1341455
Mecano – Grande Exitos DVD https://rutracker.org/forum/viewtopic.php?t=1692782
Mecano – 3 albums lossless https://rutracker.org/forum/viewtopic.php?t=1693165
Azul y Negro - 7 albums lossless https://rutracker.org/forum/viewtopic.php?p=23081270#23081270
Baccara - 4 albums lossless https://rutracker.org/forum/viewtopic.php?p=25054031#25054031
Nathalie Cardone – Discography lossless https://rutracker.org/forum/viewtopic.php?p=28381703#28381703
Для любителей женского вокала, а так же странных и нестандартных исполнителей:
Chinawoman – Discography 2007-2010 lossless https://rutracker.org/forum/viewtopic.php?t=1620436
Majandra - 2 albums mp3 https://rutracker.org/forum/viewtopic.php?p=23842474#23842474
Majandra - Discography - 2001-2007, lossless https://rutracker.org/forum/viewtopic.php?t=3283753
Toni Childs – Discography 1988-2008 mp3 https://rutracker.org/forum/viewtopic.php?t=1654112
Grace Jones – A One Man Show - Live DVD https://rutracker.org/forum/viewtopic.php?t=1480645
Amparanoia – 3 альбома mp3 https://rutracker.org/forum/viewtopic.php?t=1341455
Tanita Tikaram – Ancient Heart (Live) DVD https://rutracker.org/forum/viewtopic.php?t=1478356
Shakespear’s Sister & Siobhan Fahey & Marcella Detroit – 3 albums lossless https://rutracker.org/forum/viewtopic.php?t=1687066
Shakespear’s Sister – Best Of DVD https://rutracker.org/forum/viewtopic.php?t=1665362
Siouxsie & the Banshees – Twice Upon A Time - Video DVD https://rutracker.org/forum/viewtopic.php?t=1617984
Sam Brown - 15 albums (17 CD) lossless https://rutracker.org/forum/viewtopic.php?t=2665486
Sam Brown – 10 albums mp3 https://rutracker.org/forum/viewtopic.php?t=1308116
Sam Brown – Non Album Singles # 1 mp3 https://rutracker.org/forum/viewtopic.php?t=1315220
Sam Brown – Non Album Singles # 2 mp3https://rutracker.org/forum/viewtopic.php?t=1801659
Sam Brown – Sam Brown...The Videos / Vaya Con Dios...Night Owls – DVD https://rutracker.org/forum/viewtopic.php?t=1345057
Homespun (featuring Sam Brown) – 3 albums mp3 https://rutracker.org/forum/viewtopic.php?t=1487736
Damira mp3 https://rutracker.org/forum/viewtopic.php?t=1753569&spmode=full
Lhasa de Sela – Lhasa lossless https://rutracker.org/forum/viewtopic.php?t=1954344
Disco-star:
Donna Summer - Discography - 29 albums (34 CD) lossless https://rutracker.org/forum/viewtopic.php?t=2521755
Donna Summer - Videos 2DVD [1974-1983] https://rutracker.org/forum/viewtopic.php?t=3664622
Donna Summer – Endless Summer DVD https://rutracker.org/forum/viewtopic.php?t=1398873
Donna Summer – A Hot Night (Live in Los Angeles) DVD https://rutracker.org/forum/viewtopic.php?t=1398923
Donna Summer – Live from New York DVD https://rutracker.org/forum/viewtopic.php?t=1647500
Donna Summer - The best Of (20th century masters) DVD https://rutracker.org/forum/viewtopic.php?t=1728050
Amanda Lear - Discography (31 CD) - 1977-2010; lossless https://rutracker.org/forum/viewtopic.php?t=3136306
Amanda Lear – 8 albums mp3 https://rutracker.org/forum/viewtopic.php?t=1613839
Grace Jones – A One Man Show - Live DVD https://rutracker.org/forum/viewtopic.php?t=1480645
Chilly– Discography lossless https://rutracker.org/forum/viewtopic.php?t=1739399
Kelly Marie - 7 albums lossless https://rutracker.org/forum/viewtopic.php?t=1792707
Gilla - 4 albums lossless https://rutracker.org/forum/viewtopic.php?t=1862174
Eruption & Precious Wilson - 11 albums lossless https://rutracker.org/forum/viewtopic.php?t=1867630
Gloria Gaynor - Discography (23 CD) lossless https://rutracker.org/forum/viewtopic.php?p=24199940#24199940
The Three Degrees - 3 albums + singles lossless https://rutracker.org/forum/viewtopic.php?p=25034541#25034541
Baccara - 4 albums lossless https://rutracker.org/forum/viewtopic.php?p=25054031#25054031
Space / Paris France Transit / Didier Marouani / Roland Romanelli - Discography 1977-2011 (19 Albums, 48 CD), lossless https://rutracker.org/forum/viewtopic.php?t=2715860
Belle Epoque & Evelyne Lenton - Discography - 5 albums lossless https://rutracker.org/forum/viewtopic.php?p=28212344#28212344
Azul y Negro - 7 albums lossless https://rutracker.org/forum/viewtopic.php?p=23081270#23081270
Baccara - 4 albums lossless https://rutracker.org/forum/viewtopic.php?p=25054031#25054031
Vacuum - Discography - 4 albums (6 CD) lossless
Авторская песня:
Damira mp3 https://rutracker.org/forum/viewtopic.php?t=1753569&spmode=full
Роман Дубинников (Растям) - Баллады mp3 https://rutracker.org/forum/viewtopic.php?t=2505168
Правила, инструкции, FAQ!!!
Торрент  Добавлен [01 янв 2020, 22:53] Скачать торрент Магнет ссылка
Скачать торрент
[ Размер 13.66 КБ / Просмотров 3 ]

Статус
Проверен 
 
Размер  2.18 ГБ
Приватный: Нет (DHT включён)
.torrent скачан  0
 


     Отправить личное сообщение
   
Страница 1 из 1
Показать сообщения за:  Поле сортировки  
Начать новую тему Ответить на тему


Сейчас этот форум просматривают: нет зарегистрированных пользователей и гости: 0


Вы не можете начинать темы
Вы не можете отвечать на сообщения
Вы не можете редактировать свои сообщения
Вы не можете удалять свои сообщения
Вы не можете добавлять вложения

Перейти:  
cron