Начать новую тему Ответить на тему
Статистика раздачи
Размер: 275.97 МБ | Добавлен: 01 янв 2020, 23:00 | Скачали: 0
Сидеров: 1  [0 байт/сек]    Личеров: 0  [0 байт/сек]
Пред. тема | След. тема 

Автор
Сообщение

СообщениеДобавлено: 01 янв 2020, 23:00 

Ответить с цитатой 

Edith Piaf - L'hymne а l'amour
Жанр: French Chanson
Год выпуска диска: 2004
Производитель диска: Promo Sound Ltd
Аудио кодек: APE
Тип рипа: image+.cue
Битрейт аудио: lossless
Продолжительность: 77:09
Трэклист:
01. Mon Lйgionnaire (3:32)
02. Les mфmes de la Cloche (3:19)
03. L'Etranger (3:33)
04. C'est Lui que mon Coeur a choisi (3:21)
05. L'Accordйoniste (3:09)
06. C#etait une Histoire d'Amour (4:29)
07. C'est merveilleux (3:04)
08. Les Trois Cloches (4:09)
09. Dans le Prisons de Nantes (2:32)
10. J'm'en fous pas mal (4:22)
11. La vie en Rose (3:08)
12. Un refrain courait dans la Rue (3:04)
13. Les Amants de Paris (3:11)
14. Paris (2:42)
15. Bal dans ma Rue (3:00)
16. La p'tite Marie (3:24)
17. C'est D'la faute a tes Yeux (3:22)
18. Hymne a l'amour (3:28)
19. Jezebel (3:07)
20. Je hais les Dimanches (3:24)
21. Padam, Padam (3:19)
22. Du matin Jusqu'au soir (3:17)
23. Plus bleu que tes Yeux (3:12)
Exact Audio Copy V0.99 prebeta 4 from 23. January 2008
Отчёт EAC об извлечении, выполненном 21. июля 2009, 21:20
Edith Piaf / L'hymne а l'amour
Дисковод: ASUS DRW-1814BLT Adapter: 0 ID: 1
Режим чтения : Достоверность
Использование точного потока : Да
Отключение кэша аудио : Да
Использование указателей C2 : Нет
Коррекция смещения при чтении : 6
Способность читать области Lead-in и Lead-out : Нет
Заполнение пропущенных сэмплов тишиной : Да
Удаление блоков с тишиной в начале и конце : Нет
При вычислениях CRC использовались нулевые сэмплы : Да
Интерфейс : Встроенный Win32-интерфейс для Win NT/2000
Выходной формат : Внутренние WAV-операции
Формат сэмплов : 44.100 Гц; 16 бит; стерео
TOC извлечённого CD
Трек | Старт | Длительность | Начальный сектор | Конечный сектор
---------------------------------------------------------------------
1 | 0:00.00 | 3:32.33 | 0 | 15932
2 | 3:32.33 | 3:18.48 | 15933 | 30830
3 | 6:51.06 | 3:33.32 | 30831 | 46837
4 | 10:24.38 | 3:20.47 | 46838 | 61884
5 | 13:45.10 | 3:09.15 | 61885 | 76074
6 | 16:54.25 | 4:29.08 | 76075 | 96257
7 | 21:23.33 | 3:04.24 | 96258 | 110081
8 | 24:27.57 | 4:09.13 | 110082 | 128769
9 | 28:36.70 | 2:31.61 | 128770 | 140155
10 | 31:08.56 | 4:21.64 | 140156 | 159794
11 | 35:30.45 | 3:07.50 | 159795 | 173869
12 | 38:38.20 | 3:04.04 | 173870 | 187673
13 | 41:42.24 | 3:11.35 | 187674 | 202033
14 | 44:53.59 | 2:42.02 | 202034 | 214185
15 | 47:35.61 | 3:00.22 | 214186 | 227707
16 | 50:36.08 | 3:24.20 | 227708 | 243027
17 | 54:00.28 | 3:21.38 | 243028 | 258140
18 | 57:21.66 | 3:28.08 | 258141 | 273748
19 | 60:49.74 | 3:06.64 | 273749 | 287762
20 | 63:56.63 | 3:23.72 | 287763 | 303059
21 | 67:20.60 | 3:19.06 | 303060 | 317990
22 | 70:39.66 | 3:17.14 | 317991 | 332779
23 | 73:57.05 | 3:11.53 | 332780 | 347157
Характеристики диапазона извлечения и сообщения об ошибках
Выбранный диапазон
Имя файла T:\Edith Piaf - L'hymne а l'amour.wav
Пиковый уровень 100.0 %
Качество диапазона 100.0 %
CRC копии B4A6E94B
Копирование... OK
Ошибок не произошло
Конец отчёта
Правила, инструкции, FAQ!!!
Торрент  Добавлен [01 янв 2020, 23:00] Скачать торрент Магнет ссылка
Скачать торрент
[ Размер 11.54 КБ / Просмотров 3 ]

Статус
Проверен 
 
Размер  275.97 МБ
Приватный: Нет (DHT включён)
.torrent скачан  0
 


     Отправить личное сообщение
   
Страница 1 из 1
Показать сообщения за:  Поле сортировки  
Начать новую тему Ответить на тему


Сейчас этот форум просматривают: нет зарегистрированных пользователей и гости: 0


Вы не можете начинать темы
Вы не можете отвечать на сообщения
Вы не можете редактировать свои сообщения
Вы не можете удалять свои сообщения
Вы не можете добавлять вложения

Перейти:  
cron