Начать новую тему Ответить на тему
Статистика раздачи
Размер: 213.65 МБ | Добавлен: 01 янв 2020, 22:57 | Скачали: 0
Сидеров: 0  [0 байт/сек]    Личеров: 0  [0 байт/сек]
Пред. тема | След. тема 

Автор
Сообщение

СообщениеДобавлено: 01 янв 2020, 22:57 

Ответить с цитатой 

Barbara Carlotti / L'ideal
Жанр: French Chanson
Страна-производитель диска: Франция
Год издания диска: 2008
Издатель (лейбл): 4AD
Номер по каталогу: DEP 2807CD
Страна: Франция
Аудио кодек: FLAC (*.flac)
Тип рипа: image+.cue
Битрейт аудио: lossless
Продолжительность: 00:33:38
Источник (релизер): диск из личной коллекции
Наличие сканов в содержимом раздачи: нет
Треклист:
1. L'Ideal
2. Changement De Saison
3. Pour La Nature
4. Mademoiselle Opossum
5. Bete Farouche
6. Le Chant Des Sirenes
7. Vous Dansiez
8. Ici
9. Kisses
10. La Lettre
11. Les Femmes En Zibeline
Код:
Exact Audio Copy V1.0 beta 1 from 15. November 2010
Отчёт EAC об извлечении, выполненном 23. января 2011, 15:37
Barbara Carlotti / L'idéal
Дисковод: HL-DT-STDVDRAM GT20N   Adapter: 0  ID: 1
Режим чтения                 : Достоверность
Использование точного потока : Да
Отключение кэша аудио        : Да
Использование указателей C2  : Нет
Коррекция смещения при чтении                     : 667
Способность читать области Lead-in и Lead-out     : Нет
Заполнение пропущенных сэмплов тишиной            : Да
Удаление блоков с тишиной в начале и конце        : Нет
При вычислениях CRC использовались нулевые сэмплы : Да
Интерфейс                                         : Установленный внешний ASPI-интерфейс
Выходной формат          : Пользовательский кодировщик
Выбранный битрейт        : 896 kBit/s
Качество                 : Высокий
Добавление ID3-тега      : Нет
Утилита сжатия           : C:\Program Files\FLAC\flac.exe
Дополнительные параметры : -8 -V %s
TOC извлечённого CD
     Трек |   Старт  | Длительность | Начальный сектор | Конечный сектор
    ---------------------------------------------------------------------
       1  |  0:00.00 |    3:30.05   |           0      |      15754
       2  |  3:30.05 |    3:04.13   |       15755      |      29567
       3  |  6:34.18 |    3:33.67   |       29568      |      45609
       4  | 10:08.10 |    3:06.69   |       45610      |      59628
       5  | 13:15.04 |    3:00.02   |       59629      |      73130
       6  | 16:15.06 |    2:45.13   |       73131      |      85518
       7  | 19:00.19 |    2:49.61   |       85519      |      98254
       8  | 21:50.05 |    3:10.04   |       98255      |     112508
       9  | 25:00.09 |    2:09.00   |      112509      |     122183
      10  | 27:09.09 |    2:40.20   |      122184      |     134203
      11  | 29:49.29 |    3:48.11   |      134204      |     151314
Характеристики диапазона извлечения и сообщения об ошибках
Выбранный диапазон
     Имя файла C:\Torrent\Barbara Carlotti\Barbara Carlotti - L'idéal.wav
     Пиковый уровень 100.0 %
     Скорость извлечения 0.4 X
     Качество диапазона 100.0 %
     CRC копии 7648D097
     Копирование... OK
Ошибок не произошло
AccurateRip: сводка
Трек  1  точность не определена (достоверность 5)  [4348190C], AccurateRip вернул [C8D31275]
Трек  2  точность не определена (достоверность 5)  [6753D03F], AccurateRip вернул [14F8645F]
Трек  3  точность не определена (достоверность 5)  [F7494BE6], AccurateRip вернул [FA4FB986]
Трек  4  точность не определена (достоверность 5)  [4F75587E], AccurateRip вернул [EF9F3C46]
Трек  5  точность не определена (достоверность 5)  [081A2DC8], AccurateRip вернул [F4F819B0]
Трек  6  точность не определена (достоверность 5)  [307FB706], AccurateRip вернул [A582B0E6]
Трек  7  точность не определена (достоверность 5)  [1DB36E76], AccurateRip вернул [2E98ECB6]
Трек  8  точность не определена (достоверность 5)  [2D29893B], AccurateRip вернул [73BD00DB]
Трек  9  точность не определена (достоверность 5)  [A8B46FE9], AccurateRip вернул [5E0CA5A1]
Трек 10  точность не определена (достоверность 5)  [7F1F10CD], AccurateRip вернул [7C7D078D]
Трек 11  точность не определена (достоверность 5)  [5260CC52], AccurateRip вернул [7E9B5B61]
Ни один трек не прошёл проверки на точность
В вашей базе может быть иной вариант штамповки диска
Конец отчёта
Код:
REM GENRE Francais
REM DATE 2008
REM DISCID 8207E10B
REM COMMENT "ExactAudioCopy v1.0b1"
PERFORMER "Barbara Carlotti"
TITLE "L'ideal"
FILE "Barbara Carlotti - L'ideal.flac" WAVE
  TRACK 01 AUDIO
    TITLE "L'ideal"
    PERFORMER "Barbara Carlotti"
    INDEX 01 00:00:00
  TRACK 02 AUDIO
    TITLE "Changement de saison"
    PERFORMER "Barbara Carlotti"
    INDEX 00 03:28:03
    INDEX 01 03:30:05
  TRACK 03 AUDIO
    TITLE "Pour la nature"
    PERFORMER "Barbara Carlotti"
    INDEX 01 06:34:18
  TRACK 04 AUDIO
    TITLE "Mademoiselle Opossum"
    PERFORMER "Barbara Carlotti"
    INDEX 01 10:08:10
  TRACK 05 AUDIO
    TITLE "Bete farouche"
    PERFORMER "Barbara Carlotti"
    INDEX 00 13:12:54
    INDEX 01 13:15:04
  TRACK 06 AUDIO
    TITLE "Le chant des sirenes"
    PERFORMER "Barbara Carlotti"
    INDEX 00 16:14:04
    INDEX 01 16:15:06
  TRACK 07 AUDIO
    TITLE "Vous dansiez"
    PERFORMER "Barbara Carlotti"
    INDEX 00 18:58:54
    INDEX 01 19:00:19
  TRACK 08 AUDIO
    TITLE "Ici"
    PERFORMER "Barbara Carlotti"
    INDEX 01 21:50:05
  TRACK 09 AUDIO
    TITLE "Kisses"
    PERFORMER "Barbara Carlotti"
    INDEX 01 25:00:09
  TRACK 10 AUDIO
    TITLE "La lettre"
    PERFORMER "Barbara Carlotti"
    INDEX 00 27:07:09
    INDEX 01 27:09:09
  TRACK 11 AUDIO
    TITLE "Les femmes en zibeline"
    PERFORMER "Barbara Carlotti"
    INDEX 01 29:49:29
Парижанка Барбара Карлотти поражает не только своей красотой, но и музыкой, но необходимо наперед заявить, что самое сногсшибательное и в ее типаже, и в песнях - это конечно, столь нежданный привет из свингующей Франции 60-х. Высокая блондинка в черном платье поет про сбежавшего в Тунис любимого, упоминает Бодлера с Рембо, а затем цитирует нежнейших мелодистов и легенду британского бита "The Zombies". Под аккомпанемент от шикарного оркестра, до скромной акустической гитары с флейтой, эта женщина возвращает и чувство благородной певучести французского языка, так и вообще понимание того, как принято было исполнять такую музыку прежде, до злополучного варварского нашествия недоученных англосаксонских сингеров-сонграйтеров и томных волооких девиц. Другими словами, был бы Серж Гинзбур жив… ну вы сами понимаете.
Правила, инструкции, FAQ!!!
Торрент  Добавлен [01 янв 2020, 22:57] Скачать торрент Магнет ссылка
Скачать торрент
[ Размер 17.33 КБ / Просмотров 6 ]

Статус
Проверен 
 
Размер  213.65 МБ
Приватный: Нет (DHT включён)
.torrent скачан  0
 


     Отправить личное сообщение
   
Страница 1 из 1
Показать сообщения за:  Поле сортировки  
Начать новую тему Ответить на тему


Сейчас этот форум просматривают: нет зарегистрированных пользователей и гости: 0


Вы не можете начинать темы
Вы не можете отвечать на сообщения
Вы не можете редактировать свои сообщения
Вы не можете удалять свои сообщения
Вы не можете добавлять вложения

Перейти:  
cron