Начать новую тему Ответить на тему
Статистика раздачи
Размер: 445.02 МБ | Добавлен: 01 янв 2020, 22:51 | Скачали: 0
Сидеров: 0  [0 байт/сек]    Личеров: 0  [0 байт/сек]
Пред. тема | След. тема 

Автор
Сообщение

СообщениеДобавлено: 01 янв 2020, 22:51 

Ответить с цитатой 

Anne Sylvestre, Agnès Bihl, Nathalie Miravette, Dorothée Daniel - Carré de Dames
Жанр: French Chanson
Носитель: CD
Страна-производитель диска (релиза): France
Год издания: 2015
Издатель (лейбл): Banco Music
Номер по каталогу: BAN 3269
Аудиокодек: FLAC (*.flac)
Тип рипа: tracks+.cue
Битрейт аудио: lossless
Продолжительность: 63:43
Rip by dtromp
Наличие сканов в содержимом раздачи: да
Треклист:
01. Je reviens (4:06)
02. Non, tu n'as pas de nom (4:10)
03. Mamie les cheveux mauves (4:41)
04. Les gens qui doutent (2:32)
05. Lettre ouverte à Élise (3:32)
06. Ca n'se voit pas du tout (3:16)
07. Les imbéciles (3:09)
08. Pleure pas Casanova (3:32)
09. Un mur pour pleurer (4:06)
10. Petit Bonhomme (3:12)
11. Son mec à moi (3:37)
12. Treize ans (2:47)
13. Carcasse (4:18)
14. La plus belle c'est ma mère (3:33)
15. Juste une femme (3:49)
16. Merci maman, merci papa (3:23)
17. Une sorcière comme les autres (5:59)
 
Код:
Exact Audio Copy V1.1 from 23. June 2015
EAC extraction logfile from 6. May 2016, 20:54
Anne Sylvestre, Agnes Bihl, Nathalie Miravette, Dorothee Daniel / Carre de Dames
Used drive  : ATAPI   iHBS112   2   Adapter: 1  ID: 1
Read mode               : Secure
Utilize accurate stream : Yes
Defeat audio cache      : Yes
Make use of C2 pointers : No
Read offset correction                      : 6
Overread into Lead-In and Lead-Out          : No
Fill up missing offset samples with silence : Yes
Delete leading and trailing silent blocks   : No
Null samples used in CRC calculations       : Yes
Used interface                              : Native Win32 interface for Win NT & 2000
Gap handling                                : Appended to previous track
Used output format              : User Defined Encoder
Selected bitrate                : 768 kBit/s
Quality                         : High
Add ID3 tag                     : No
Command line compressor         : C:\Program Files\Exact Audio Copy\FLAC\FLAC.EXE
Additional command line options : -8 -V -T "ARTIST=%artist%" -T "TITLE=%title%" -T "ALBUM=%albumtitle%" -T "DATE=%year%" -T "TRACKNUMBER=%tracknr%" -T "GENRE=%genre%" -T "PERFORMER=%albuminterpret%" -T "COMPOSER=%composer%" -T "ALBUMARTIST=%albumartist%" -T "DISCNUMBER=%cdnumber%" -T "TOTALDISCS=%totalcds%" -T "TOTALTRACKS=%numtracks%" -T "COMMENT=EAC Secure Mode, Test & Copy, AccurateRip, FLAC -8" %source% -o %dest%
TOC of the extracted CD
     Track |   Start  |  Length  | Start sector | End sector
    ---------------------------------------------------------
        1  |  0:00.00 |  4:05.66 |         0    |    18440
        2  |  4:05.66 |  4:09.63 |     18441    |    37178
        3  |  8:15.54 |  4:40.53 |     37179    |    58231
        4  | 12:56.32 |  2:32.05 |     58232    |    69636
        5  | 15:28.37 |  3:32.12 |     69637    |    85548
        6  | 19:00.49 |  3:16.33 |     85549    |   100281
        7  | 22:17.07 |  3:08.57 |    100282    |   114438
        8  | 25:25.64 |  3:32.35 |    114439    |   130373
        9  | 28:58.24 |  4:06.09 |    130374    |   148832
       10  | 33:04.33 |  3:12.19 |    148833    |   163251
       11  | 36:16.52 |  3:37.09 |    163252    |   179535
       12  | 39:53.61 |  2:47.17 |    179536    |   192077
       13  | 42:41.03 |  4:17.57 |    192078    |   211409
       14  | 46:58.60 |  3:33.16 |    211410    |   227400
       15  | 50:32.01 |  3:49.27 |    227401    |   244602
       16  | 54:21.28 |  3:23.12 |    244603    |   259839
       17  | 57:44.40 |  5:58.54 |    259840    |   286743
Track  1
     Filename F:\DL\Anne Sylvestre, Agnes Bihl, Nathalie Miravette, Dorothee Daniel - Carre de Dames (2015) [FLAC]\01 - Je reviens.wav
     Pre-gap length  0:00:02.00
     Peak level 100.0 %
     Extraction speed 4.8 X
     Track quality 100.0 %
     Test CRC 7B8FFD5D
     Copy CRC 7B8FFD5D
     Accurately ripped (confidence 1)  [7E9051DA]  (AR v2)
     Copy OK
Track  2
     Filename F:\DL\Anne Sylvestre, Agnes Bihl, Nathalie Miravette, Dorothee Daniel - Carre de Dames (2015) [FLAC]\02 - Non, tu n'as pas de nom.wav
     Pre-gap length  0:00:01.74
     Peak level 100.0 %
     Extraction speed 5.4 X
     Track quality 100.0 %
     Test CRC 49C43098
     Copy CRC 49C43098
     Accurately ripped (confidence 1)  [D2848822]  (AR v2)
     Copy OK
Track  3
     Filename F:\DL\Anne Sylvestre, Agnes Bihl, Nathalie Miravette, Dorothee Daniel - Carre de Dames (2015) [FLAC]\03 - Mamie les cheveux mauves.wav
     Pre-gap length  0:00:01.74
     Peak level 100.0 %
     Extraction speed 6.0 X
     Track quality 100.0 %
     Test CRC C9E30AD8
     Copy CRC C9E30AD8
     Accurately ripped (confidence 1)  [F1D4E6BA]  (AR v2)
     Copy OK
Track  4
     Filename F:\DL\Anne Sylvestre, Agnes Bihl, Nathalie Miravette, Dorothee Daniel - Carre de Dames (2015) [FLAC]\04 - Les gens qui doutent.wav
     Pre-gap length  0:00:01.74
     Peak level 100.0 %
     Extraction speed 4.6 X
     Track quality 99.9 %
     Test CRC 73DB0F71
     Copy CRC 73DB0F71
     Accurately ripped (confidence 1)  [82611939]  (AR v2)
     Copy OK
Track  5
     Filename F:\DL\Anne Sylvestre, Agnes Bihl, Nathalie Miravette, Dorothee Daniel - Carre de Dames (2015) [FLAC]\05 - Lettre ouverte a Elise.wav
     Pre-gap length  0:00:01.74
     Peak level 100.0 %
     Extraction speed 5.3 X
     Track quality 99.9 %
     Test CRC A63C63EC
     Copy CRC A63C63EC
     Accurately ripped (confidence 1)  [40BDB8CE]  (AR v2)
     Copy OK
Track  6
     Filename F:\DL\Anne Sylvestre, Agnes Bihl, Nathalie Miravette, Dorothee Daniel - Carre de Dames (2015) [FLAC]\06 - Ca n'se voit pas du tout.wav
     Pre-gap length  0:00:01.74
     Peak level 100.0 %
     Extraction speed 6.7 X
     Track quality 100.0 %
     Test CRC 393F996C
     Copy CRC 393F996C
     Accurately ripped (confidence 1)  [28BE582E]  (AR v2)
     Copy OK
Track  7
     Filename F:\DL\Anne Sylvestre, Agnes Bihl, Nathalie Miravette, Dorothee Daniel - Carre de Dames (2015) [FLAC]\07 - Les imbeciles.wav
     Pre-gap length  0:00:01.74
     Peak level 100.0 %
     Extraction speed 6.9 X
     Track quality 100.0 %
     Test CRC 0A1CCB57
     Copy CRC 0A1CCB57
     Accurately ripped (confidence 1)  [07A5C6FD]  (AR v2)
     Copy OK
Track  8
     Filename F:\DL\Anne Sylvestre, Agnes Bihl, Nathalie Miravette, Dorothee Daniel - Carre de Dames (2015) [FLAC]\08 - Pleure pas Casanova.wav
     Pre-gap length  0:00:01.74
     Peak level 100.0 %
     Extraction speed 6.0 X
     Track quality 99.9 %
     Test CRC 33643F59
     Copy CRC 33643F59
     Accurately ripped (confidence 1)  [1A8B99B4]  (AR v2)
     Copy OK
Track  9
     Filename F:\DL\Anne Sylvestre, Agnes Bihl, Nathalie Miravette, Dorothee Daniel - Carre de Dames (2015) [FLAC]\09 - Un mur pour pleurer.wav
     Pre-gap length  0:00:01.74
     Peak level 100.0 %
     Extraction speed 5.7 X
     Track quality 100.0 %
     Test CRC 4025E057
     Copy CRC 4025E057
     Accurately ripped (confidence 1)  [CCEA92C6]  (AR v2)
     Copy OK
Track 10
     Filename F:\DL\Anne Sylvestre, Agnes Bihl, Nathalie Miravette, Dorothee Daniel - Carre de Dames (2015) [FLAC]\10 - Petit Bonhomme.wav
     Pre-gap length  0:00:01.74
     Peak level 100.0 %
     Extraction speed 5.0 X
     Track quality 99.9 %
     Test CRC C377859F
     Copy CRC C377859F
     Accurately ripped (confidence 1)  [C76DCDA2]  (AR v2)
     Copy OK
Track 11
     Filename F:\DL\Anne Sylvestre, Agnes Bihl, Nathalie Miravette, Dorothee Daniel - Carre de Dames (2015) [FLAC]\11 - Son mec a moi.wav
     Pre-gap length  0:00:01.74
     Peak level 100.0 %
     Extraction speed 6.6 X
     Track quality 99.9 %
     Test CRC BA4E12D0
     Copy CRC BA4E12D0
     Accurately ripped (confidence 1)  [C2358052]  (AR v2)
     Copy OK
Track 12
     Filename F:\DL\Anne Sylvestre, Agnes Bihl, Nathalie Miravette, Dorothee Daniel - Carre de Dames (2015) [FLAC]\12 - Treize ans.wav
     Pre-gap length  0:00:01.74
     Peak level 100.0 %
     Extraction speed 7.8 X
     Track quality 100.0 %
     Test CRC 4C2DE9D1
     Copy CRC 4C2DE9D1
     Accurately ripped (confidence 1)  [24D68969]  (AR v2)
     Copy OK
Track 13
     Filename F:\DL\Anne Sylvestre, Agnes Bihl, Nathalie Miravette, Dorothee Daniel - Carre de Dames (2015) [FLAC]\13 - Carcasse.wav
     Pre-gap length  0:00:01.74
     Peak level 100.0 %
     Extraction speed 8.6 X
     Track quality 100.0 %
     Test CRC BC82D722
     Copy CRC BC82D722
     Accurately ripped (confidence 1)  [36616D81]  (AR v2)
     Copy OK
Track 14
     Filename F:\DL\Anne Sylvestre, Agnes Bihl, Nathalie Miravette, Dorothee Daniel - Carre de Dames (2015) [FLAC]\14 - La plus belle c'est ma mere.wav
     Pre-gap length  0:00:01.74
     Peak level 100.0 %
     Extraction speed 7.8 X
     Track quality 100.0 %
     Test CRC FFBDECF3
     Copy CRC FFBDECF3
     Accurately ripped (confidence 1)  [44C3B658]  (AR v2)
     Copy OK
Track 15
     Filename F:\DL\Anne Sylvestre, Agnes Bihl, Nathalie Miravette, Dorothee Daniel - Carre de Dames (2015) [FLAC]\15 - Juste une femme.wav
     Pre-gap length  0:00:01.74
     Peak level 100.0 %
     Extraction speed 7.3 X
     Track quality 100.0 %
     Test CRC 84729695
     Copy CRC 84729695
     Accurately ripped (confidence 1)  [472D23F1]  (AR v2)
     Copy OK
Track 16
     Filename F:\DL\Anne Sylvestre, Agnes Bihl, Nathalie Miravette, Dorothee Daniel - Carre de Dames (2015) [FLAC]\16 - Merci maman, merci papa.wav
     Peak level 100.0 %
     Extraction speed 6.5 X
     Track quality 99.9 %
     Test CRC 016A7A8D
     Copy CRC 016A7A8D
     Accurately ripped (confidence 1)  [727C83DB]  (AR v2)
     Copy OK
Track 17
     Filename F:\DL\Anne Sylvestre, Agnes Bihl, Nathalie Miravette, Dorothee Daniel - Carre de Dames (2015) [FLAC]\17 - Une sorciere comme les autres.wav
     Pre-gap length  0:00:01.74
     Peak level 100.0 %
     Extraction speed 9.7 X
     Track quality 100.0 %
     Test CRC 15B9BB42
     Copy CRC 15B9BB42
     Accurately ripped (confidence 1)  [4CA702F1]  (AR v2)
     Copy OK
All tracks accurately ripped
No errors occurred
End of status report
---- CUETools DB Plugin V2.1.6
[CTDB TOCID: Wnn.x.u61BuRZdWM8BWc.Ygp09E-] disk not present in database
Submit result: Wnn.x.u61BuRZdWM8BWc.Ygp09E- has been uploaded
==== Log checksum B06A00BF2E44F6F10F2916841599934D9E5ADD676897471386C94C0AA5AF7865 ====
Код:
REM GENRE Chanson
REM DATE 2015
REM DISCID FC0EEF11
REM COMMENT "ExactAudioCopy v1.1"
PERFORMER "Anne Sylvestre, Agnès Bihl, Nathalie Miravette, Dorothée Daniel"
TITLE "Carre de Dames"
FILE "01 - Je reviens.flac" WAVE
  TRACK 01 AUDIO
    TITLE "Je reviens"
    PERFORMER "Anne Sylvestre, Agnès Bihl, Nathalie Miravette, Dorothée Daniel"
    INDEX 01 00:00:00
  TRACK 02 AUDIO
    TITLE "Non, tu n'as pas de nom"
    PERFORMER "Anne Sylvestre, Agnès Bihl, Nathalie Miravette, Dorothée Daniel"
    INDEX 00 04:03:67
FILE "02 - Non, tu n'as pas de nom.flac" WAVE
    INDEX 01 00:00:00
  TRACK 03 AUDIO
    TITLE "Mamie les cheveux mauves"
    PERFORMER "Anne Sylvestre, Agnès Bihl, Nathalie Miravette, Dorothée Daniel"
    INDEX 00 04:07:64
FILE "03 - Mamie les cheveux mauves.flac" WAVE
    INDEX 01 00:00:00
  TRACK 04 AUDIO
    TITLE "Les gens qui doutent"
    PERFORMER "Anne Sylvestre, Agnès Bihl, Nathalie Miravette, Dorothée Daniel"
    INDEX 00 04:38:54
FILE "04 - Les gens qui doutent.flac" WAVE
    INDEX 01 00:00:00
  TRACK 05 AUDIO
    TITLE "Lettre ouverte à Élise"
    PERFORMER "Anne Sylvestre, Agnès Bihl, Nathalie Miravette, Dorothée Daniel"
    INDEX 00 02:30:06
FILE "05 - Lettre ouverte a Elise.flac" WAVE
    INDEX 01 00:00:00
  TRACK 06 AUDIO
    TITLE "Ca n'se voit pas du tout"
    PERFORMER "Anne Sylvestre, Agnès Bihl, Nathalie Miravette, Dorothée Daniel"
    INDEX 00 03:30:13
FILE "06 - Ca n'se voit pas du tout.flac" WAVE
    INDEX 01 00:00:00
  TRACK 07 AUDIO
    TITLE "Les imbéciles"
    PERFORMER "Anne Sylvestre, Agnès Bihl, Nathalie Miravette, Dorothée Daniel"
    INDEX 00 03:14:34
FILE "07 - Les imbeciles.flac" WAVE
    INDEX 01 00:00:00
  TRACK 08 AUDIO
    TITLE "Pleure pas Casanova"
    PERFORMER "Anne Sylvestre, Agnès Bihl, Nathalie Miravette, Dorothée Daniel"
    INDEX 00 03:06:58
FILE "08 - Pleure pas Casanova.flac" WAVE
    INDEX 01 00:00:00
  TRACK 09 AUDIO
    TITLE "Un mur pour pleurer"
    PERFORMER "Anne Sylvestre, Agnès Bihl, Nathalie Miravette, Dorothée Daniel"
    INDEX 00 03:30:36
FILE "09 - Un mur pour pleurer.flac" WAVE
    INDEX 01 00:00:00
  TRACK 10 AUDIO
    TITLE "Petit Bonhomme"
    PERFORMER "Anne Sylvestre, Agnès Bihl, Nathalie Miravette, Dorothée Daniel"
    INDEX 00 04:04:10
FILE "10 - Petit Bonhomme.flac" WAVE
    INDEX 01 00:00:00
  TRACK 11 AUDIO
    TITLE "Son mec à moi"
    PERFORMER "Anne Sylvestre, Agnès Bihl, Nathalie Miravette, Dorothée Daniel"
    INDEX 00 03:10:20
FILE "11 - Son mec a moi.flac" WAVE
    INDEX 01 00:00:00
  TRACK 12 AUDIO
    TITLE "Treize ans"
    PERFORMER "Anne Sylvestre, Agnès Bihl, Nathalie Miravette, Dorothée Daniel"
    INDEX 00 03:35:10
FILE "12 - Treize ans.flac" WAVE
    INDEX 01 00:00:00
  TRACK 13 AUDIO
    TITLE "Carcasse"
    PERFORMER "Anne Sylvestre, Agnès Bihl, Nathalie Miravette, Dorothée Daniel"
    INDEX 00 02:45:18
FILE "13 - Carcasse.flac" WAVE
    INDEX 01 00:00:00
  TRACK 14 AUDIO
    TITLE "La plus belle c'est ma mère"
    PERFORMER "Anne Sylvestre, Agnès Bihl, Nathalie Miravette, Dorothée Daniel"
    INDEX 00 04:15:58
FILE "14 - La plus belle c'est ma mere.flac" WAVE
    INDEX 01 00:00:00
  TRACK 15 AUDIO
    TITLE "Juste une femme"
    PERFORMER "Anne Sylvestre, Agnès Bihl, Nathalie Miravette, Dorothée Daniel"
    INDEX 00 03:31:17
FILE "15 - Juste une femme.flac" WAVE
    INDEX 01 00:00:00
FILE "16 - Merci maman, merci papa.flac" WAVE
  TRACK 16 AUDIO
    TITLE "Merci maman, merci papa"
    PERFORMER "Anne Sylvestre, Agnès Bihl, Nathalie Miravette, Dorothée Daniel"
    INDEX 01 00:00:00
  TRACK 17 AUDIO
    TITLE "Une sorcière comme les autres"
    PERFORMER "Anne Sylvestre, Agnès Bihl, Nathalie Miravette, Dorothée Daniel"
    INDEX 00 03:21:13
FILE "17 - Une sorciere comme les autres.flac" WAVE
    INDEX 01 00:00:00
Правила, инструкции, FAQ!!!
Торрент  Добавлен [01 янв 2020, 22:51] Скачать торрент Магнет ссылка
Скачать торрент
[ Размер 19.87 КБ / Просмотров 0 ]

Статус
Проверен 
 
Размер  445.02 МБ
Приватный: Нет (DHT включён)
.torrent скачан  0
 


     Отправить личное сообщение
   
Страница 1 из 1
Показать сообщения за:  Поле сортировки  
Начать новую тему Ответить на тему


Сейчас этот форум просматривают: нет зарегистрированных пользователей и гости: 0


Вы не можете начинать темы
Вы не можете отвечать на сообщения
Вы не можете редактировать свои сообщения
Вы не можете удалять свои сообщения
Вы не можете добавлять вложения

Перейти:  
cron