Начать новую тему Ответить на тему
Статистика раздачи
Размер: 533.88 МБ | Добавлен: 01 янв 2020, 22:42 | Скачали: 0
Сидеров: 0  [0 байт/сек]    Личеров: 0  [0 байт/сек]
Пред. тема | След. тема 

Автор
Сообщение

СообщениеДобавлено: 01 янв 2020, 22:42 

Ответить с цитатой 

Arbadetorne (Arbadétorne) / Rimajures
Жанр: folklore
Носитель: CD
Год издания: 2007
Страна исполнителя (группы): Франция
Аудиокодек: FLAC (*.flac)
Тип рипа: tracks+.cue
Битрейт аудио: lossless
Продолжительность: 00:56:55
Источник (релизер): ?
Наличие сканов в содержимом раздачи: буклет
Треклист:
01. Les Garcons Sont Trompeurs (02:22)
02. Lallee Des Soupirs (03:30)
03. La Foire de Cholet (04:28)
04. Cest Bien Aimable Un Homme (05:29)
05. Menteries (04:49)
06. Le Diable Sort de Lenfer (03:40)
07. La Bergere ET Le Grison (04:15)
08. Lechalier (05:17)
09. Nicolas (02:58)
10. La Bique Au Parlement (03:39)
11. Le Cure de St Abbesse (03:50)
12. Languille Dans la Gerbe (03:35)
13. Ma Position Est Bien Triste ET Cruelle (03:53)
14. Le Voleur de Prunes (04:32)
Код:
X Lossless Decoder version 20130407 (143.0)
XLD extraction logfile from 2013-06-03 05:46:14 +0200
Arbadetorne / Rimajures
Used drive : HL-DT-ST DVDRW  GX40N (revision RQ00)
Media type : Pressed CD
Ripper mode             : XLD Secure Ripper
Disable audio cache     : OK for the drive with a cache less than 1375KiB
Make use of C2 pointers : NO
Read offset correction  : 6
Max retry count         : 100
Gap status              : Analyzed, Appended (except HTOA)
TOC of the extracted CD
     Track |   Start  |  Length  | Start sector | End sector
    ---------------------------------------------------------
        1  | 00:00:00 | 02:25:11 |         0    |    10885
        2  | 02:25:11 | 03:33:03 |     10886    |    26863
        3  | 05:58:14 | 04:30:73 |     26864    |    47186
        4  | 10:29:12 | 05:31:24 |     47187    |    72035
        5  | 16:00:36 | 04:49:46 |     72036    |    93756
        6  | 20:50:07 | 03:42:03 |     93757    |   110409
        7  | 24:32:10 | 04:15:62 |    110410    |   129596
        8  | 28:47:72 | 05:21:54 |    129597    |   153725
        9  | 34:09:51 | 03:01:12 |    153726    |   167312
       10  | 37:10:63 | 03:42:29 |    167313    |   183991
       11  | 40:53:17 | 03:51:51 |    183992    |   201367
       12  | 44:44:68 | 03:39:12 |    201368    |   217804
       13  | 48:24:05 | 03:57:22 |    217805    |   235601
       14  | 52:21:27 | 04:38:15 |    235602    |   256466
       15  | 59:31:42 | 02:29:70 |    267867    |   279111
AccurateRip Summary
    Disc not found in AccurateRip DB.
All Tracks
    Album gain               : -9.81 dB
    Peak                     : 0.999969
    Statistics
        Read error                           : 0
        Jitter error (maybe fixed)           : 0
        Retry sector count                   : 0
        Damaged sector count                 : 0
Track 01
    Filename : /Users/giampieroborgonovo/Desktop/XLD/01 - Les Garcons Sont Trompeurs.flac
    Pre-gap length : 00:02:00
    Track gain               : -8.81 dB
    Peak                     : 0.990387
    CRC32 hash (test run)    : 47BC957D
    CRC32 hash               : 47BC957D
    CRC32 hash (skip zero)   : CC618828
    AccurateRip v1 signature : AB7DAF11
    AccurateRip v2 signature : 2FFADDD4
        ->Track not present in AccurateRip database.
    Statistics
        Read error                           : 0
        Jitter error (maybe fixed)           : 0
        Retry sector count                   : 0
        Damaged sector count                 : 0
Track 02
    Filename : /Users/giampieroborgonovo/Desktop/XLD/02 - L'Allee Des Soupirs.flac
    Track gain               : -10.41 dB
    Peak                     : 0.887695
    CRC32 hash (test run)    : CAF6A921
    CRC32 hash               : CAF6A921
    CRC32 hash (skip zero)   : 7D1A9AC0
    AccurateRip v1 signature : FCD3400E
    AccurateRip v2 signature : 6FD79885
        ->Track not present in AccurateRip database.
    Statistics
        Read error                           : 0
        Jitter error (maybe fixed)           : 0
        Retry sector count                   : 0
        Damaged sector count                 : 0
Track 03
    Filename : /Users/giampieroborgonovo/Desktop/XLD/03 - La Foire De Cholet.flac
    Track gain               : -10.57 dB
    Peak                     : 0.954498
    CRC32 hash (test run)    : E55B8C83
    CRC32 hash               : E55B8C83
    CRC32 hash (skip zero)   : 78409326
    AccurateRip v1 signature : C3A6FA93
    AccurateRip v2 signature : 8295114C
        ->Track not present in AccurateRip database.
    Statistics
        Read error                           : 0
        Jitter error (maybe fixed)           : 0
        Retry sector count                   : 0
        Damaged sector count                 : 0
Track 04
    Filename : /Users/giampieroborgonovo/Desktop/XLD/04 - C'est Bien Aimable Un Homme.flac
    Track gain               : -8.73 dB
    Peak                     : 0.994293
    CRC32 hash (test run)    : BC2A96D4
    CRC32 hash               : BC2A96D4
    CRC32 hash (skip zero)   : 950A61DE
    AccurateRip v1 signature : 1AE1A958
    AccurateRip v2 signature : BDAFFD6D
        ->Track not present in AccurateRip database.
    Statistics
        Read error                           : 0
        Jitter error (maybe fixed)           : 0
        Retry sector count                   : 0
        Damaged sector count                 : 0
Track 05
    Filename : /Users/giampieroborgonovo/Desktop/XLD/05 - Menteries.flac
    Track gain               : -9.41 dB
    Peak                     : 0.973206
    CRC32 hash (test run)    : 7B0C1EA4
    CRC32 hash               : 7B0C1EA4
    CRC32 hash (skip zero)   : D48E0C7F
    AccurateRip v1 signature : A91EC184
    AccurateRip v2 signature : 708B2D4F
        ->Track not present in AccurateRip database.
    Statistics
        Read error                           : 0
        Jitter error (maybe fixed)           : 0
        Retry sector count                   : 0
        Damaged sector count                 : 0
Track 06
    Filename : /Users/giampieroborgonovo/Desktop/XLD/06 - Le Diable Sort De L'enfer.flac
    Track gain               : -9.78 dB
    Peak                     : 0.775482
    CRC32 hash (test run)    : E9DC61F1
    CRC32 hash               : E9DC61F1
    CRC32 hash (skip zero)   : 7E71B769
    AccurateRip v1 signature : 20020BF7
    AccurateRip v2 signature : A1039515
        ->Track not present in AccurateRip database.
    Statistics
        Read error                           : 0
        Jitter error (maybe fixed)           : 0
        Retry sector count                   : 0
        Damaged sector count                 : 0
Track 07
    Filename : /Users/giampieroborgonovo/Desktop/XLD/07 - La Bergere Et Le Grison.flac
    Track gain               : -8.71 dB
    Peak                     : 0.852142
    CRC32 hash (test run)    : EDF4881C
    CRC32 hash               : EDF4881C
    CRC32 hash (skip zero)   : EF4A0F44
    AccurateRip v1 signature : 0BE098F0
    AccurateRip v2 signature : F6079AD2
        ->Track not present in AccurateRip database.
    Statistics
        Read error                           : 0
        Jitter error (maybe fixed)           : 0
        Retry sector count                   : 0
        Damaged sector count                 : 0
Track 08
    Filename : /Users/giampieroborgonovo/Desktop/XLD/08 - L'Echalier.flac
    Track gain               : -9.97 dB
    Peak                     : 0.999969
    CRC32 hash (test run)    : 90C42963
    CRC32 hash               : 90C42963
    CRC32 hash (skip zero)   : 73E3710D
    AccurateRip v1 signature : 430B3936
    AccurateRip v2 signature : 1060FB15
        ->Track not present in AccurateRip database.
    Statistics
        Read error                           : 0
        Jitter error (maybe fixed)           : 0
        Retry sector count                   : 0
        Damaged sector count                 : 0
Track 09
    Filename : /Users/giampieroborgonovo/Desktop/XLD/09 - Nicolas.flac
    Track gain               : -10.93 dB
    Peak                     : 0.954498
    CRC32 hash (test run)    : BEBD51BD
    CRC32 hash               : BEBD51BD
    CRC32 hash (skip zero)   : D8D10C7B
    AccurateRip v1 signature : 86ED77D9
    AccurateRip v2 signature : DF345AD9
        ->Track not present in AccurateRip database.
    Statistics
        Read error                           : 0
        Jitter error (maybe fixed)           : 0
        Retry sector count                   : 0
        Damaged sector count                 : 0
Track 10
    Filename : /Users/giampieroborgonovo/Desktop/XLD/10 - La Bique Au Parlement.flac
    Track gain               : -10.45 dB
    Peak                     : 0.999969
    CRC32 hash (test run)    : EA20786F
    CRC32 hash               : EA20786F
    CRC32 hash (skip zero)   : 3DCD30D1
    AccurateRip v1 signature : 3BA4E36B
    AccurateRip v2 signature : 2AD6EAE0
        ->Track not present in AccurateRip database.
    Statistics
        Read error                           : 0
        Jitter error (maybe fixed)           : 0
        Retry sector count                   : 0
        Damaged sector count                 : 0
Track 11
    Filename : /Users/giampieroborgonovo/Desktop/XLD/11 - Le Cure De St Abbesse.flac
    Track gain               : -8.67 dB
    Peak                     : 0.994293
    CRC32 hash (test run)    : AF247CEF
    CRC32 hash               : AF247CEF
    CRC32 hash (skip zero)   : A1028E91
    AccurateRip v1 signature : 7B2C4D89
    AccurateRip v2 signature : F08382BB
        ->Track not present in AccurateRip database.
    Statistics
        Read error                           : 0
        Jitter error (maybe fixed)           : 0
        Retry sector count                   : 0
        Damaged sector count                 : 0
Track 12
    Filename : /Users/giampieroborgonovo/Desktop/XLD/12 - L'Anguille Dans La Gerbe.flac
    Track gain               : -10.04 dB
    Peak                     : 0.994293
    CRC32 hash (test run)    : 4B8C720D
    CRC32 hash               : 4B8C720D
    CRC32 hash (skip zero)   : A1EEE62A
    AccurateRip v1 signature : A326B1B9
    AccurateRip v2 signature : 73997D14
        ->Track not present in AccurateRip database.
    Statistics
        Read error                           : 0
        Jitter error (maybe fixed)           : 0
        Retry sector count                   : 0
        Damaged sector count                 : 0
Track 13
    Filename : /Users/giampieroborgonovo/Desktop/XLD/13 - Ma Position Est Bien Triste Et Cruelle.flac
    Track gain               : -9.54 dB
    Peak                     : 0.994293
    CRC32 hash (test run)    : 411BC4CA
    CRC32 hash               : 411BC4CA
    CRC32 hash (skip zero)   : 08BC0219
    AccurateRip v1 signature : 968AB88B
    AccurateRip v2 signature : 4E5CCD46
        ->Track not present in AccurateRip database.
    Statistics
        Read error                           : 0
        Jitter error (maybe fixed)           : 0
        Retry sector count                   : 0
        Damaged sector count                 : 0
Track 14
    Filename : /Users/giampieroborgonovo/Desktop/XLD/14 - Le Voleur De Prunes.flac
    Track gain               : -9.74 dB
    Peak                     : 0.916290
    CRC32 hash (test run)    : E16A627F
    CRC32 hash               : E16A627F
    CRC32 hash (skip zero)   : 7AA4B3D6
    AccurateRip v1 signature : 9F2CFA3D
    AccurateRip v2 signature : 3CA37B58
        ->Track not present in AccurateRip database.
    Statistics
        Read error                           : 0
        Jitter error (maybe fixed)           : 0
        Retry sector count                   : 0
        Damaged sector count                 : 0
No errors occurred
End of status report
Код:
TITLE "Rimajures"
PERFORMER "Arbadetorne"
REM GENRE "Traditional"
REM DATE "2007"
REM DISCNUMBER 1
REM TOTALDISCS 1
REM DISCID C40E890F
FILE "01 - Les Garcons Sont Trompeurs.wav" WAVE
  TRACK 01 AUDIO
    TITLE "Les Garcons Sont Trompeurs"
    SONGWRITER "Arbadétorne"
    INDEX 01 00:00:00
FILE "02 - L'Allee Des Soupirs.wav" WAVE
  TRACK 02 AUDIO
    TITLE "L'Allee Des Soupirs"
    SONGWRITER "Arbadétorne"
    INDEX 01 00:00:00
FILE "03 - La Foire De Cholet.wav" WAVE
  TRACK 03 AUDIO
    TITLE "La Foire De Cholet"
    SONGWRITER "Arbadétorne"
    INDEX 01 00:00:00
FILE "04 - C'est Bien Aimable Un Homme.wav" WAVE
  TRACK 04 AUDIO
    TITLE "C'est Bien Aimable Un Homme"
    SONGWRITER "Arbadétorne"
    INDEX 01 00:00:00
FILE "05 - Menteries.wav" WAVE
  TRACK 05 AUDIO
    TITLE "Menteries"
    SONGWRITER "Arbadétorne"
    INDEX 01 00:00:00
FILE "06 - Le Diable Sort De L'enfer.wav" WAVE
  TRACK 06 AUDIO
    TITLE "Le Diable Sort De L'enfer"
    SONGWRITER "Arbadétorne"
    INDEX 01 00:00:00
FILE "07 - La Bergere Et Le Grison.wav" WAVE
  TRACK 07 AUDIO
    TITLE "La Bergere Et Le Grison"
    SONGWRITER "Arbadétorne"
    INDEX 01 00:00:00
FILE "08 - L'Echalier.wav" WAVE
  TRACK 08 AUDIO
    TITLE "L'Echalier"
    SONGWRITER "Arbadétorne"
    INDEX 01 00:00:00
FILE "09 - Nicolas.wav" WAVE
  TRACK 09 AUDIO
    TITLE "Nicolas"
    SONGWRITER "Arbadétorne"
    INDEX 01 00:00:00
FILE "10 - La Bique Au Parlement.wav" WAVE
  TRACK 10 AUDIO
    TITLE "La Bique Au Parlement"
    SONGWRITER "Arbadétorne"
    INDEX 01 00:00:00
FILE "11 - Le Cure De St Abbesse.wav" WAVE
  TRACK 11 AUDIO
    TITLE "Le Cure De St Abbesse"
    SONGWRITER "Arbadétorne"
    INDEX 01 00:00:00
FILE "12 - L'Anguille Dans La Gerbe.wav" WAVE
  TRACK 12 AUDIO
    TITLE "L'Anguille Dans La Gerbe"
    SONGWRITER "Arbadétorne"
    INDEX 01 00:00:00
FILE "13 - Ma Position Est Bien Triste Et Cruelle.wav" WAVE
  TRACK 13 AUDIO
    TITLE "Ma Position Est Bien Triste Et Cruelle"
    SONGWRITER "Arbadétorne"
    INDEX 01 00:00:00
FILE "14 - Le Voleur De Prunes.wav" WAVE
  TRACK 14 AUDIO
    TITLE "Le Voleur De Prunes"
    SONGWRITER "Arbadétorne"
    INDEX 01 00:00:00
Участники:
Michaël Auger
Maxime Chevrier
Jean-François Rambaud
http://arbadetorne.com/
Правила, инструкции, FAQ!!!
Торрент  Добавлен [01 янв 2020, 22:42] Скачать торрент Магнет ссылка
Скачать торрент
[ Размер 12.63 КБ / Просмотров 1 ]

Статус
Проверен 
 
Размер  533.88 МБ
Приватный: Нет (DHT включён)
.torrent скачан  0
 


     Отправить личное сообщение
   
Страница 1 из 1
Показать сообщения за:  Поле сортировки  
Начать новую тему Ответить на тему


Сейчас этот форум просматривают: нет зарегистрированных пользователей и гости: 0


Вы не можете начинать темы
Вы не можете отвечать на сообщения
Вы не можете редактировать свои сообщения
Вы не можете удалять свои сообщения
Вы не можете добавлять вложения

Перейти:  
cron