Начать новую тему Ответить на тему
Статистика раздачи
Размер: 247.07 МБ | Добавлен: 01 янв 2020, 23:05 | Скачали: 0
Сидеров: 1  [0 байт/сек]    Личеров: 0  [0 байт/сек]
Пред. тема | След. тема 

Автор
Сообщение

СообщениеДобавлено: 01 янв 2020, 23:05 

Ответить с цитатой 

Lydie Auvray / Pure
Жанр: Folk, World, Chanson, Accordeon
Страна-производитель диска: EU
Год издания: 2004
Издатель (лейбл): Westparc Music
Номер по каталогу: 87106
Страна: France
Аудиокодек: APE (*.ape)
Тип рипа: image+.cue
Битрейт аудио: lossless
Продолжительность: 00:48:42
Источник (релизер): avax
Наличие сканов в содержимом раздачи: нет
Треклист:
01 Für Else
02 Nostalgie de toi
03 Carnaval
04 Le conte de Jean et Jeannette
05 Joschi
06 Feuilles mortes
07 Tivoli
08 El cidre
09 Java en -on
10 Solène
11 Choco Flanel
12 Cristal
13 Jeannot
14 Accordéon
15 Guinguette
16 Mondsüchtig
Код:
Exact Audio Copy V1.0 beta 2 from 29. April 2011
EAC extraction logfile from 21. March 2012, 20:37
Lydie Auvray / Pure
Used drive : PIONEER BD-RW BDR-206 Adapter: 2 ID: 3
Read mode : Secure
Utilize accurate stream : Yes
Defeat audio cache : Yes
Make use of C2 pointers : No
Read offset correction : 667
Overread into Lead-In and Lead-Out : No
Fill up missing offset samples with silence : Yes
Delete leading and trailing silent blocks : No
Null samples used in CRC calculations : Yes
Used interface : Native Win32 interface for Win NT & 2000
Used output format : User Defined Encoder
Selected bitrate : 896 kBit/s
Quality : High
Add ID3 tag : No
Command line compressor : C:\Program Files\FLAC\flac.exe
Additional command line options : -5 -T "Artist=%artist%" -T "Title=%title%" -T "Album=%albumtitle%" -T "Date=%year%" -T "Tracknumber=%tracknr%" -T "Genre=%genre%" %source% -o %dest%
TOC of the extracted CD
Track | Start | Length | Start sector | End sector
---------------------------------------------------------
1 | 0:00.00 | 3:25.45 | 0 | 15419
2 | 3:25.45 | 3:44.56 | 15420 | 32275
3 | 7:10.26 | 3:53.70 | 32276 | 49820
4 | 11:04.21 | 3:28.65 | 49821 | 65485
5 | 14:33.11 | 3:09.66 | 65486 | 79726
6 | 17:43.02 | 2:53.61 | 79727 | 92762
7 | 20:36.63 | 2:45.18 | 92763 | 105155
8 | 23:22.06 | 2:35.15 | 105156 | 116795
9 | 25:57.21 | 2:11.44 | 116796 | 126664
10 | 28:08.65 | 2:59.65 | 126665 | 140154
11 | 31:08.55 | 3:26.22 | 140155 | 155626
12 | 34:35.02 | 2:39.23 | 155627 | 167574
13 | 37:14.25 | 2:37.31 | 167575 | 179380
14 | 39:51.56 | 3:38.06 | 179381 | 195736
15 | 43:29.62 | 2:18.21 | 195737 | 206107
16 | 45:48.08 | 2:54.09 | 206108 | 219166
Range status and errors
Selected range
Filename I:\=== VINYL RIPS ===\=== EAC===\X FRESH RIP\Lydie Auvray - Pure.wav
Peak level 96.9 %
Extraction speed 7.2 X
Range quality 100.0 %
Test CRC F221F5BE
Copy CRC F221F5BE
Copy OK
No errors occurred
AccurateRip summary
Track 1 accurately ripped (confidence 2) [32E0B1EA] (AR v1)
Track 2 accurately ripped (confidence 2) [A109DA7F] (AR v1)
Track 3 accurately ripped (confidence 2) [B34FA06D] (AR v1)
Track 4 accurately ripped (confidence 2) [875D44BC] (AR v1)
Track 5 accurately ripped (confidence 2) [59C0F6B4] (AR v1)
Track 6 accurately ripped (confidence 2) [5EFCE51C] (AR v1)
Track 7 accurately ripped (confidence 2) [68972132] (AR v1)
Track 8 accurately ripped (confidence 2) [F1741568] (AR v1)
Track 9 accurately ripped (confidence 2) [45F845A7] (AR v1)
Track 10 accurately ripped (confidence 2) [4DA04E28] (AR v1)
Track 11 accurately ripped (confidence 2) [DFFC382A] (AR v1)
Track 12 accurately ripped (confidence 2) [A6B482F1] (AR v1)
Track 13 accurately ripped (confidence 2) [44EC37B7] (AR v1)
Track 14 accurately ripped (confidence 3) [A6B68867] (AR v1)
Track 15 accurately ripped (confidence 2) [30D4B422] (AR v1)
Track 16 accurately ripped (confidence 2) [0AB86E36] (AR v1)
All tracks accurately ripped
End of status report
==== Log checksum 35B1912B74ECDB96F021C72B1C470036825C25B680102C1C92A13E8D20ED2BB7 ====
Код:
AUDIOCHECKER v2.0 beta (build 457) - by Dester - opdester@freemail.hu
~~~~~~~~~~~~~~~~~~~~~~~~~~~~~~~~~~
-=== DO NOT EDIT THIS FILE! ===-
Path: ...\TEMP
1 -=- Lydie Auvray - Pure.wav -=- CDDA (100%)
108918340
Правила, инструкции, FAQ!!!
Торрент  Добавлен [01 янв 2020, 23:05] Скачать торрент Магнет ссылка
Скачать торрент
[ Размер 19.91 КБ / Просмотров 7 ]

Статус
Проверен 
 
Размер  247.07 МБ
Приватный: Нет (DHT включён)
.torrent скачан  0
 


     Отправить личное сообщение
   
Страница 1 из 1
Показать сообщения за:  Поле сортировки  
Начать новую тему Ответить на тему


Сейчас этот форум просматривают: нет зарегистрированных пользователей и гости: 0


Вы не можете начинать темы
Вы не можете отвечать на сообщения
Вы не можете редактировать свои сообщения
Вы не можете удалять свои сообщения
Вы не можете добавлять вложения

Перейти:  
cron