Начать новую тему Ответить на тему
Статистика раздачи
Размер: 326.36 МБ | Добавлен: 27 июн 2020, 19:10 | Скачали: 0
Сидеров: 0  [0 байт/сек]    Личеров: 0  [0 байт/сек]
Пред. тема | След. тема 

Автор
Сообщение

СообщениеДобавлено: 27 июн 2020, 19:10 

Ответить с цитатой 

Counting Crows / August and Everything After
Жанр: Folk Rock, Soft Rock
Носитель: CD
Страна-производитель диска (релиза): USA
Год издания: 1996
Издатель (лейбл): Mobile Fidelity Sound Lab
Номер по каталогу: UDCD 664
Страна исполнителя (группы): USA
Аудиокодек: FLAC (*.flac)
Тип рипа: tracks+.cue
Продолжительность: 00:51:50
Источник: интернет (неизвестен)
Наличие сканов в содержимом раздачи: да
Детальная информация: https://www.discogs.com/release/1427726
Треклист:
1 Round Here 5:32
2 Omaha 3:40
3 Mr. Jones 4:33
4 Perfect Blue Buildings 5:01
5 Anna Begins 4:32
6 Time And Time Again 5:13
7 Rain King 4:16
8 Sullivan Street 4:29
9 Ghost Train 4:01
10 Raining In Baltimore 4:41
11 A Murder Of One 5:44
Код:
Exact Audio Copy V1.5 from 20. February 2020
EAC extraction logfile from 2. June 2020, 2:26
Counting Crows / August and Everything After
Used drive  : PIONEER BD-RW   BDR-203   Adapter: 1  ID: 0
Read mode               : Secure
Utilize accurate stream : Yes
Defeat audio cache      : Yes
Make use of C2 pointers : No
Read offset correction                      : 667
Overread into Lead-In and Lead-Out          : No
Fill up missing offset samples with silence : Yes
Delete leading and trailing silent blocks   : No
Null samples used in CRC calculations       : Yes
Used interface                              : Native Win32 interface for Win NT & 2000
Gap handling                                : Appended to previous track
Used output format              : User Defined Encoder
Selected bitrate                : 1024 kBit/s
Quality                         : High
Add ID3 tag                     : No
Command line compressor         : C:\Program Files (x86)\Exact Audio Copy\FLAC\FLAC.EXE
Additional command line options : -8 -V -T "ARTIST=%artist%" -T "TITLE=%title%" -T "ALBUM=%albumtitle%" -T "DATE=%year%" -T "TRACKNUMBER=%tracknr%" -T "GENRE=%genre%" -T "PERFORMER=%albuminterpret%" -T "COMPOSER=%composer%" %haslyrics%--tag-from-file=LYRICS="%lyricsfile%"%haslyrics% -T "ALBUMARTIST=%albumartist%" -T "DISCNUMBER=%cdnumber%" -T "TOTALDISCS=%totalcds%" -T "TOTALTRACKS=%numtracks%" -T "COMMENT=%comment%" %source% -o %dest%
TOC of the extracted CD
     Track |   Start  |  Length  | Start sector | End sector
    ---------------------------------------------------------
        1  |  0:00.00 |  5:33.62 |         0    |    25036
        2  |  5:33.62 |  3:40.25 |     25037    |    41561
        3  |  9:14.12 |  4:33.25 |     41562    |    62061
        4  | 13:47.37 |  5:01.13 |     62062    |    84649
        5  | 18:48.50 |  4:31.47 |     84650    |   105021
        6  | 23:20.22 |  5:14.63 |    105022    |   128634
        7  | 28:35.10 |  4:16.05 |    128635    |   147839
        8  | 32:51.15 |  4:30.00 |    147840    |   168089
        9  | 37:21.15 |  4:02.55 |    168090    |   186294
       10  | 41:23.70 |  4:42.02 |    186295    |   207446
       11  | 46:05.72 |  5:44.08 |    207447    |   233254
Track  1
     Filename C:\Users\G\Music\FLAC_Rips\Counting Crows - August and Everything After (1993 MFSL UDCD 664) [FLAC]\01 - Round Here.wav
     Pre-gap length  0:00:02.00
     Peak level 100.0 %
     Extraction speed 4.7 X
     Track quality 100.0 %
     Test CRC B4E28B61
     Copy CRC B4E28B61
     Accurately ripped (confidence 45)  [468C6B12]  (AR v2)
     Copy OK
Track  2
     Filename C:\Users\G\Music\FLAC_Rips\Counting Crows - August and Everything After (1993 MFSL UDCD 664) [FLAC]\02 - Omaha.wav
     Pre-gap length  0:00:01.45
     Peak level 100.0 %
     Extraction speed 4.9 X
     Track quality 100.0 %
     Test CRC 04DC93B8
     Copy CRC 04DC93B8
     Accurately ripped (confidence 45)  [748F8068]  (AR v2)
     Copy OK
Track  3
     Filename C:\Users\G\Music\FLAC_Rips\Counting Crows - August and Everything After (1993 MFSL UDCD 664) [FLAC]\03 - Mr. Jones.wav
     Peak level 100.0 %
     Extraction speed 5.5 X
     Track quality 100.0 %
     Test CRC 447DD50A
     Copy CRC 447DD50A
     Accurately ripped (confidence 44)  [A122EAC3]  (AR v2)
     Copy OK
Track  4
     Filename C:\Users\G\Music\FLAC_Rips\Counting Crows - August and Everything After (1993 MFSL UDCD 664) [FLAC]\04 - Perfect Blue Buildings.wav
     Peak level 100.0 %
     Extraction speed 5.9 X
     Track quality 100.0 %
     Test CRC E78E62DE
     Copy CRC E78E62DE
     Accurately ripped (confidence 44)  [2CD848D5]  (AR v2)
     Copy OK
Track  5
     Filename C:\Users\G\Music\FLAC_Rips\Counting Crows - August and Everything After (1993 MFSL UDCD 664) [FLAC]\05 - Anna Begins.wav
     Peak level 100.0 %
     Extraction speed 6.2 X
     Track quality 100.0 %
     Test CRC 19B787D5
     Copy CRC 19B787D5
     Accurately ripped (confidence 44)  [F942CD61]  (AR v2)
     Copy OK
Track  6
     Filename C:\Users\G\Music\FLAC_Rips\Counting Crows - August and Everything After (1993 MFSL UDCD 664) [FLAC]\06 - Time and Time Again.wav
     Peak level 100.0 %
     Extraction speed 6.7 X
     Track quality 100.0 %
     Test CRC 59E0D982
     Copy CRC 59E0D982
     Accurately ripped (confidence 44)  [624DF5B4]  (AR v2)
     Copy OK
Track  7
     Filename C:\Users\G\Music\FLAC_Rips\Counting Crows - August and Everything After (1993 MFSL UDCD 664) [FLAC]\07 - Rain King.wav
     Pre-gap length  0:00:01.30
     Peak level 100.0 %
     Extraction speed 6.9 X
     Track quality 100.0 %
     Test CRC 4F51021A
     Copy CRC 4F51021A
     Accurately ripped (confidence 43)  [E0DB6B7D]  (AR v2)
     Copy OK
Track  8
     Filename C:\Users\G\Music\FLAC_Rips\Counting Crows - August and Everything After (1993 MFSL UDCD 664) [FLAC]\08 - Sullivan Street.wav
     Peak level 100.0 %
     Extraction speed 7.2 X
     Track quality 100.0 %
     Test CRC 81EDE28B
     Copy CRC 81EDE28B
     Accurately ripped (confidence 43)  [B08FDFFE]  (AR v2)
     Copy OK
Track  9
     Filename C:\Users\G\Music\FLAC_Rips\Counting Crows - August and Everything After (1993 MFSL UDCD 664) [FLAC]\09 - Ghost Train.wav
     Pre-gap length  0:00:01.33
     Peak level 100.0 %
     Extraction speed 7.3 X
     Track quality 100.0 %
     Test CRC C5406496
     Copy CRC C5406496
     Accurately ripped (confidence 44)  [378BD7E5]  (AR v2)
     Copy OK
Track 10
     Filename C:\Users\G\Music\FLAC_Rips\Counting Crows - August and Everything After (1993 MFSL UDCD 664) [FLAC]\10 - Raining in Baltimore.wav
     Pre-gap length  0:00:01.68
     Peak level 90.0 %
     Extraction speed 7.7 X
     Track quality 100.0 %
     Test CRC AB9CC4D1
     Copy CRC AB9CC4D1
     Accurately ripped (confidence 44)  [4537249A]  (AR v2)
     Copy OK
Track 11
     Filename C:\Users\G\Music\FLAC_Rips\Counting Crows - August and Everything After (1993 MFSL UDCD 664) [FLAC]\11 - A Murder of One.wav
     Pre-gap length  0:00:01.30
     Peak level 100.0 %
     Extraction speed 8.2 X
     Track quality 100.0 %
     Test CRC 564C0C76
     Copy CRC 564C0C76
     Accurately ripped (confidence 44)  [2051BFC5]  (AR v2)
     Copy OK
All tracks accurately ripped
No errors occurred
End of status report
---- CUETools DB Plugin V2.1.6
[CTDB TOCID: NQUCunFGjQIU44FBCTl.0uZM1Ng-] found
Submit result: NQUCunFGjQIU44FBCTl.0uZM1Ng- has been confirmed
Track | CTDB Status
  1   | (67/67) Accurately ripped
  2   | (67/67) Accurately ripped
  3   | (67/67) Accurately ripped
  4   | (67/67) Accurately ripped
  5   | (66/67) Accurately ripped
  6   | (66/67) Accurately ripped
  7   | (65/67) Accurately ripped
  8   | (67/67) Accurately ripped
  9   | (63/67) Accurately ripped, or (3/67) differs in 14 samples @00:46:67
 10   | (67/67) Accurately ripped
 11   | (63/67) Accurately ripped, or (3/67) differs in 14 samples @03:57:10
==== Log checksum 2A29E09F1419A263E0E3D3E264DFDD2EE32F7B1EED5CAD3EDAB9939483285E13 ====
Код:
REM GENRE Folk/Rock
REM DATE 1993
REM DISCID 940C260B
REM COMMENT "ExactAudioCopy v1.5"
PERFORMER "Counting Crows"
TITLE "August and Everything After"
REM COMPOSER ""
FILE "01 - Round Here.wav" WAVE
  TRACK 01 AUDIO
    TITLE "Round Here"
    PERFORMER "Counting Crows"
    REM COMPOSER ""
    INDEX 01 00:00:00
  TRACK 02 AUDIO
    TITLE "Omaha"
    PERFORMER "Counting Crows"
    REM COMPOSER ""
    INDEX 00 05:32:17
FILE "02 - Omaha.wav" WAVE
    INDEX 01 00:00:00
FILE "03 - Mr. Jones.wav" WAVE
  TRACK 03 AUDIO
    TITLE "Mr. Jones"
    PERFORMER "Counting Crows"
    REM COMPOSER ""
    INDEX 01 00:00:00
FILE "04 - Perfect Blue Buildings.wav" WAVE
  TRACK 04 AUDIO
    TITLE "Perfect Blue Buildings"
    PERFORMER "Counting Crows"
    REM COMPOSER ""
    INDEX 01 00:00:00
FILE "05 - Anna Begins.wav" WAVE
  TRACK 05 AUDIO
    TITLE "Anna Begins"
    PERFORMER "Counting Crows"
    REM COMPOSER ""
    INDEX 01 00:00:00
FILE "06 - Time and Time Again.wav" WAVE
  TRACK 06 AUDIO
    TITLE "Time and Time Again"
    PERFORMER "Counting Crows"
    REM COMPOSER ""
    INDEX 01 00:00:00
  TRACK 07 AUDIO
    TITLE "Rain King"
    PERFORMER "Counting Crows"
    REM COMPOSER ""
    INDEX 00 05:13:33
FILE "07 - Rain King.wav" WAVE
    INDEX 01 00:00:00
FILE "08 - Sullivan Street.wav" WAVE
  TRACK 08 AUDIO
    TITLE "Sullivan Street"
    PERFORMER "Counting Crows"
    REM COMPOSER ""
    INDEX 01 00:00:00
  TRACK 09 AUDIO
    TITLE "Ghost Train"
    PERFORMER "Counting Crows"
    REM COMPOSER ""
    INDEX 00 04:28:42
FILE "09 - Ghost Train.wav" WAVE
    INDEX 01 00:00:00
  TRACK 10 AUDIO
    TITLE "Raining in Baltimore"
    PERFORMER "Counting Crows"
    REM COMPOSER ""
    INDEX 00 04:00:62
FILE "10 - Raining in Baltimore.wav" WAVE
    INDEX 01 00:00:00
  TRACK 11 AUDIO
    TITLE "A Murder of One"
    PERFORMER "Counting Crows"
    REM COMPOSER ""
    INDEX 00 04:40:47
FILE "11 - A Murder of One.wav" WAVE
    INDEX 01 00:00:00
Правила, инструкции, FAQ!!!
Торрент  Добавлен [27 июн 2020, 19:10] Скачать торрент Магнет ссылка
Скачать торрент
[ Размер 27.18 КБ / Просмотров 4 ]

Статус
Проверен 
 
Размер  326.36 МБ
Приватный: Нет (DHT включён)
.torrent скачан  0
 


     Отправить личное сообщение
   
Страница 1 из 1
Показать сообщения за:  Поле сортировки  
Начать новую тему Ответить на тему


Сейчас этот форум просматривают: нет зарегистрированных пользователей и гости: 0


Вы не можете начинать темы
Вы не можете отвечать на сообщения
Вы не можете редактировать свои сообщения
Вы не можете удалять свои сообщения
Вы не можете добавлять вложения

Перейти:  
cron