Начать новую тему Ответить на тему
Статистика раздачи
Размер: 329.16 МБ | Добавлен: 26 мар 2019, 20:01 | Скачали: 0
Сидеров: 0  [0 байт/сек]    Личеров: 0  [0 байт/сек]
Пред. тема | След. тема 

Автор
Сообщение

СообщениеДобавлено: 26 мар 2019, 20:01 

Ответить с цитатой 

Counting Crows / August And Everything After
Жанр: Folk Rock, Soft Rock, Alternative Rock
Носитель: CD
Страна-производитель диска (релиза): Russia
Год издания: 1993
Издатель (лейбл): Geffen
Номер по каталогу: GED24528
Страна исполнителя (группы): USA
Аудиокодек: FLAC (*.flac)
Тип рипа: image+.cue
Битрейт аудио: lossless
Продолжительность: 51:43
Источник (релизер): HaRD
Наличие сканов в содержимом раздачи: да
Треклист:
01. Round Here
02. Omaha
03. Mr Jones
04. Perfect Blue Buildings
05. Anna Begins
06. Time And Time Again
07. Rain King
08. Sullivan Street
09. Ghost Train
10. Raining In Baltimore
11. A Murder Of One
Код:
Exact Audio Copy V1.1 from 23. June 2015
EAC extraction logfile from 15. May 2016, 16:43
Counting Crows / August and Everything After
Used drive  : PIONEER BD-RW   BDR-209D   Adapter: 0  ID: 5
Read mode               : Secure
Utilize accurate stream : Yes
Defeat audio cache      : Yes
Make use of C2 pointers : No
Read offset correction                      : 667
Overread into Lead-In and Lead-Out          : No
Fill up missing offset samples with silence : Yes
Delete leading and trailing silent blocks   : No
Null samples used in CRC calculations       : Yes
Used interface                              : Installed external ASPI interface
Used output format              : User Defined Encoder
Selected bitrate                : 768 kBit/s
Quality                         : High
Add ID3 tag                     : No
Command line compressor         : C:\Program Files (x86)\Exact Audio Copy\FLAC\FLAC.EXE
Additional command line options : -6 -V -T "ARTIST=%artist%" -T "TITLE=%title%" -T "ALBUM=%albumtitle%" -T "DATE=%year%" -T "TRACKNUMBER=%tracknr%" -T "GENRE=%genre%" -T "COMMENT=%comment%" -T "BAND=%albuminterpret%" -T "ALBUMARTIST=%albuminterpret%" -T "COMPOSER=%composer%" %haslyrics%--tag-from-file=LYRICS="%lyricsfile%"%haslyrics% -T "DISCNUMBER=%cdnumber%" -T "TOTALDISCS=%totalcds%" -T "TOTALTRACKS=%numtracks%" %hascover%--picture="%coverfile%"%hascover% %source% -o %dest%
TOC of the extracted CD
     Track |   Start  |  Length  | Start sector | End sector
    ---------------------------------------------------------
        1  |  0:00.00 |  5:31.27 |         0    |    24851
        2  |  5:31.27 |  3:39.40 |     24852    |    41316
        3  |  9:10.67 |  4:32.33 |     41317    |    61749
        4  | 13:43.25 |  5:00.62 |     61750    |    84311
        5  | 18:44.12 |  4:31.25 |     84312    |   104661
        6  | 23:15.37 |  5:14.40 |    104662    |   128251
        7  | 28:30.02 |  4:15.63 |    128252    |   147439
        8  | 32:45.65 |  4:29.50 |    147440    |   167664
        9  | 37:15.40 |  4:02.60 |    167665    |   185874
       10  | 41:18.25 |  4:41.55 |    185875    |   207004
       11  | 46:00.05 |  5:43.37 |    207005    |   232766
Range status and errors
Selected range
     Filename E:\MUSIC\Counting Crows - August and Everything After.wav
     Peak level 98.9 %
     Extraction speed 7.4 X
     Range quality 99.9 %
     Test CRC CE3479BD
     Copy CRC CE3479BD
     Copy OK
No errors occurred
AccurateRip summary
Track  1  cannot be verified as accurate (confidence 123)  [EB5872AA], AccurateRip returned [F5C03A69]  (AR v2)
Track  2  cannot be verified as accurate (confidence 122)  [EBC6B6DA], AccurateRip returned [44A498D1]  (AR v2)
Track  3  cannot be verified as accurate (confidence 124)  [0E9BA476], AccurateRip returned [D7140F89]  (AR v2)
Track  4  cannot be verified as accurate (confidence 122)  [3E330A18], AccurateRip returned [0A349E6B]  (AR v2)
Track  5  cannot be verified as accurate (confidence 121)  [D9E06EC6], AccurateRip returned [DB8536C9]  (AR v2)
Track  6  cannot be verified as accurate (confidence 121)  [C3E3799D], AccurateRip returned [C5426A3F]  (AR v2)
Track  7  cannot be verified as accurate (confidence 122)  [5886F5D8], AccurateRip returned [78133108]  (AR v2)
Track  8  cannot be verified as accurate (confidence 121)  [3ABF5324], AccurateRip returned [AE72BBEF]  (AR v2)
Track  9  cannot be verified as accurate (confidence 117)  [1D4C0A70], AccurateRip returned [D47B5882]  (AR v2)
Track 10  cannot be verified as accurate (confidence 115)  [B7E39105], AccurateRip returned [57AAFB76]  (AR v2)
Track 11  cannot be verified as accurate (confidence 115)  [381E839D], AccurateRip returned [C772BB37]  (AR v2)
No tracks could be verified as accurate
You may have a different pressing from the one(s) in the database
End of status report
==== Log checksum 94E0B57E3063856BF15F088E7BA4A1C7C7C430ECE9BD445BA7CB9BC6E206783D ====
Код:
REM GENRE Alternative
REM DATE 1993
REM DISCID 930C1F0B
REM COMMENT "ExactAudioCopy v1.1"
PERFORMER "Counting Crows"
TITLE "August and Everything After"
FILE "Counting Crows - August and Everything After.flac" WAVE
  TRACK 01 AUDIO
    TITLE "Round Here"
    PERFORMER "Counting Crows"
    INDEX 01 00:00:00
  TRACK 02 AUDIO
    TITLE "Omaha"
    PERFORMER "Counting Crows"
    INDEX 00 05:30:55
    INDEX 01 05:31:27
  TRACK 03 AUDIO
    TITLE "Mr. Jones"
    PERFORMER "Counting Crows"
    INDEX 00 09:10:47
    INDEX 01 09:10:67
  TRACK 04 AUDIO
    TITLE "Perfect Blue Buildings"
    PERFORMER "Counting Crows"
    INDEX 00 13:43:07
    INDEX 01 13:43:25
  TRACK 05 AUDIO
    TITLE "Anna Begins"
    PERFORMER "Counting Crows"
    INDEX 00 18:44:02
    INDEX 01 18:44:12
  TRACK 06 AUDIO
    TITLE "Time and Time Again"
    PERFORMER "Counting Crows"
    INDEX 00 23:15:07
    INDEX 01 23:15:37
  TRACK 07 AUDIO
    TITLE "Rain King"
    PERFORMER "Counting Crows"
    INDEX 00 28:27:37
    INDEX 01 28:30:02
  TRACK 08 AUDIO
    TITLE "Sullivan Street"
    PERFORMER "Counting Crows"
    INDEX 00 32:45:62
    INDEX 01 32:45:65
  TRACK 09 AUDIO
    TITLE "Ghost Train"
    PERFORMER "Counting Crows"
    INDEX 00 37:13:55
    INDEX 01 37:15:40
  TRACK 10 AUDIO
    TITLE "Raining In Baltimore"
    PERFORMER "Counting Crows"
    INDEX 00 41:17:07
    INDEX 01 41:18:25
  TRACK 11 AUDIO
    TITLE "A Murder of One"
    PERFORMER "Counting Crows"
    INDEX 00 45:58:55
    INDEX 01 46:00:05
Код:
foobar2000 1.1.10 / Dynamic Range Meter 1.1.1
log date: 2016-05-23 09:18:36
--------------------------------------------------------------------------------
Analyzed: Counting Crows / August and Everything After
--------------------------------------------------------------------------------
DR         Peak         RMS     Duration Track
--------------------------------------------------------------------------------
DR9       -0.11 dB   -12.67 dB      5:31 ?-Round Here
DR11      -0.11 dB   -12.97 dB      3:40 ?-Omaha
DR8       -0.57 dB    -9.79 dB      4:32 ?-Mr. Jones
DR11      -0.10 dB   -13.58 dB      5:01 ?-Perfect Blue Buildings
DR9       -0.58 dB   -11.94 dB      4:31 ?-Anna Begins
DR7       -0.10 dB    -9.88 dB      5:15 ?-Time and Time Again
DR8       -0.11 dB    -9.42 dB      4:16 ?-Rain King
DR8       -0.10 dB   -12.04 dB      4:30 ?-Sullivan Street
DR11      -0.60 dB   -13.90 dB      4:03 ?-Ghost Train
DR12      -0.15 dB   -16.81 dB      4:42 ?-Raining In Baltimore
DR8       -0.43 dB   -10.30 dB      5:43 ?-A Murder of One
--------------------------------------------------------------------------------
Number of tracks:  11
Official DR value: DR9
Samplerate:        44100 Hz
Channels:          2
Bits per sample:   16
Bitrate:           870 kbps
Codec:             FLAC
================================================================================
Правила, инструкции, FAQ!!!
Торрент  Добавлен [26 мар 2019, 20:01] Скачать торрент Магнет ссылка
Скачать торрент
[ Размер 13.93 КБ / Просмотров 1 ]

Статус
Проверен 
 
Размер  329.16 МБ
Приватный: Нет (DHT включён)
.torrent скачан  0
 


     Отправить личное сообщение
   
Страница 1 из 1
Показать сообщения за:  Поле сортировки  
Начать новую тему Ответить на тему


Сейчас этот форум просматривают: нет зарегистрированных пользователей и гости: 0


Вы не можете начинать темы
Вы не можете отвечать на сообщения
Вы не можете редактировать свои сообщения
Вы не можете удалять свои сообщения
Вы не можете добавлять вложения

Перейти:  
cron