Начать новую тему Ответить на тему
Статистика раздачи
Размер: 299.02 МБ | Добавлен: 15 май 2020, 16:39 | Скачали: 0
Сидеров: 0  [0 байт/сек]    Личеров: 0  [0 байт/сек]
Пред. тема | След. тема 

Автор
Сообщение

СообщениеДобавлено: 15 май 2020, 16:39 

Ответить с цитатой 

Joan Armatrading / Whatever's For Us
Жанр: Folk Rock
Носитель: CD
Страна-производитель диска (релиза): UK
Год издания: 2001
Издатель (лейбл): Metro
Номер по каталогу: METRCD047
Аудиокодек: FLAC (*.flac)
Тип рипа: tracks+.cue
Продолжительность: 00:45:16
Источник: локальная сеть
Наличие сканов в содержимом раздачи: да
Треклист:
1 My Family 3:11
2 City Girl 4:02
3 Spend a Little Time 2:25
4 Whatever's For Us 2:12
5 Child Star 2:29
6 Visionary Mountains 1:49
7 It Could Have Been Better 4:22
8 Head Of The Table 2:34
9 Mister Remember Me 2:16
10 Give It A Try 2:11
11 Alice 3:32
12 Conversation 2:18
13 Mean Old Man 2:34
14 All The King's Gardens 3:01
15 Lonely Lady 3:24
16 Together In Words And Music 3:26
Код:
Exact Audio Copy V0.99 prebeta 4 from 23. January 2008
EAC extraction logfile from 28. May 2009, 21:31
Joan Armatrading / Whatever's For Us
Used drive  : _NEC    DVD+-RW ND-3530A   Adapter: 0  ID: 1
Read mode               : Secure
Utilize accurate stream : Yes
Defeat audio cache      : No
Make use of C2 pointers : Yes
Read offset correction                      : 48
Overread into Lead-In and Lead-Out          : No
Fill up missing offset samples with silence : Yes
Delete leading and trailing silent blocks   : No
Null samples used in CRC calculations       : No
Used interface                              : Native Win32 interface for Win NT & 2000
Used output format : Internal WAV Routines
Sample format      : 44.100 Hz; 16 Bit; Stereo
TOC of the extracted CD
     Track |   Start  |  Length  | Start sector | End sector
    ---------------------------------------------------------
        1  |  0:00.00 |  3:11.65 |         0    |    14389
        2  |  3:11.65 |  4:01.40 |     14390    |    32504
        3  |  7:13.30 |  2:24.02 |     32505    |    43306
        4  |  9:37.32 |  2:13.70 |     43307    |    53351
        5  | 11:51.27 |  2:29.48 |     53352    |    64574
        6  | 14:21.00 |  1:48.17 |     64575    |    72691
        7  | 16:09.17 |  4:20.73 |     72692    |    92264
        8  | 20:30.15 |  2:33.32 |     92265    |   103771
        9  | 23:03.47 |  2:16.05 |    103772    |   113976
       10  | 25:19.52 |  2:10.05 |    113977    |   123731
       11  | 27:29.57 |  3:31.33 |    123732    |   139589
       12  | 31:01.15 |  2:18.15 |    139590    |   149954
       13  | 33:19.30 |  2:33.47 |    149955    |   161476
       14  | 35:53.02 |  3:00.53 |    161477    |   175029
       15  | 38:53.55 |  3:25.12 |    175030    |   190416
       16  | 42:18.67 |  3:26.13 |    190417    |   205879
Range status and errors
Selected range
     Filename C:\Documents and Settings\My Documents\My Music\Joan Armatrading - Whatever's for Us\Joan Armatrading - Whatever's For Us.wav
     Peak level 98.6 %
     Range quality 100.0 %
     Copy CRC 70D84D14
     Copy OK
No errors occurred
AccurateRip summary
Track  1  accurately ripped (confidence 1)  [65CC27CC]
Track  2  accurately ripped (confidence 1)  [05CD8F1C]
Track  3  accurately ripped (confidence 1)  [462A5AE0]
Track  4  accurately ripped (confidence 1)  [AC40D083]
Track  5  accurately ripped (confidence 1)  [655FB56D]
Track  6  accurately ripped (confidence 1)  [9815B0B7]
Track  7  accurately ripped (confidence 1)  [21AB6E97]
Track  8  accurately ripped (confidence 1)  [14DE7068]
Track  9  accurately ripped (confidence 1)  [B1109D13]
Track 10  accurately ripped (confidence 1)  [838621CF]
Track 11  accurately ripped (confidence 1)  [E76C19B2]
Track 12  accurately ripped (confidence 1)  [3F86A96A]
Track 13  accurately ripped (confidence 1)  [D9ED1281]
Track 14  accurately ripped (confidence 1)  [FE9BDB28]
Track 15  accurately ripped (confidence 1)  [0881FD46]
Track 16  accurately ripped (confidence 1)  [08C21A39]
All tracks accurately ripped
End of status report
Код:
REM GENRE Folk
REM DATE 1972
REM DISCID C60AB910
REM COMMENT "ExactAudioCopy v0.99pb4"
TITLE "Whatever's for Us"
PERFORMER "Joan Armatrading"
FILE "01 - My Family.flac" WAVE
  TRACK 01 AUDIO
    TITLE "My Family"
    PERFORMER "Joan Armatrading"
    INDEX 01 00:00:00
FILE "02 - City Girl.flac" WAVE
  TRACK 02 AUDIO
    TITLE "City Girl"
    PERFORMER "Joan Armatrading"
    PREGAP 00:01:23
    INDEX 01 00:00:00
FILE "03 - Spend a Little Time.flac" WAVE
  TRACK 03 AUDIO
    TITLE "Spend a Little Time"
    PERFORMER "Joan Armatrading"
    PREGAP 00:01:58
    INDEX 01 00:00:00
FILE "04 - Whatever's for Us.flac" WAVE
  TRACK 04 AUDIO
    TITLE "Whatever's for Us"
    PERFORMER "Joan Armatrading"
    INDEX 01 00:00:00
FILE "05 - Child Star.flac" WAVE
  TRACK 05 AUDIO
    TITLE "Child Star"
    PERFORMER "Joan Armatrading"
    PREGAP 00:01:07
    INDEX 01 00:00:00
FILE "06 - Visionary Mountains.flac" WAVE
  TRACK 06 AUDIO
    TITLE "Visionary Mountains"
    PERFORMER "Joan Armatrading"
    INDEX 01 00:00:00
FILE "07 - It Could Have Been Better.flac" WAVE
  TRACK 07 AUDIO
    TITLE "It Could Have Been Better"
    PERFORMER "Joan Armatrading"
    PREGAP 00:01:52
    INDEX 01 00:00:00
FILE "08 - Head of the Table.flac" WAVE
  TRACK 08 AUDIO
    TITLE "Head of the Table"
    PERFORMER "Joan Armatrading"
    PREGAP 00:02:40
    INDEX 01 00:00:00
FILE "09 - Mister Remember Me.flac" WAVE
  TRACK 09 AUDIO
    TITLE "Mister Remember Me"
    PERFORMER "Joan Armatrading"
    PREGAP 00:01:67
    INDEX 01 00:00:00
FILE "10 - Give It a Try.flac" WAVE
  TRACK 10 AUDIO
    TITLE "Give It a Try"
    PERFORMER "Joan Armatrading"
    INDEX 01 00:00:00
FILE "11 - Alice.flac" WAVE
  TRACK 11 AUDIO
    TITLE "Alice"
    PERFORMER "Joan Armatrading"
    INDEX 01 00:00:00
FILE "12 - Conversation.flac" WAVE
  TRACK 12 AUDIO
    TITLE "Conversation"
    PERFORMER "Joan Armatrading"
    PREGAP 00:02:43
    INDEX 01 00:00:00
FILE "13 - Mean Old Man.flac" WAVE
  TRACK 13 AUDIO
    TITLE "Mean Old Man"
    PERFORMER "Joan Armatrading"
    PREGAP 00:01:38
    INDEX 01 00:00:00
FILE "14 - All the King's Gardens.flac" WAVE
  TRACK 14 AUDIO
    TITLE "All the King's Gardens"
    PERFORMER "Joan Armatrading"
    INDEX 01 00:00:00
FILE "15 - Lonely Lady [single A-side] [bonus].flac" WAVE
  TRACK 15 AUDIO
    TITLE "Lonely Lady [single A-side] [bonus]"
    PERFORMER "Joan Armatrading"
    PREGAP 00:03:30
    INDEX 01 00:00:00
FILE "16 - Together in Words and Music [single B-side] [bonus].flac" WAVE
  TRACK 16 AUDIO
    TITLE "Together in Words and Music [single B-side] [bonus]"
    PERFORMER "Joan Armatrading"
    PREGAP 00:02:30
    INDEX 01 00:00:00
Правила, инструкции, FAQ!!!
Торрент  Добавлен [15 май 2020, 16:39] Скачать торрент Магнет ссылка
Скачать торрент
[ Размер 13.57 КБ / Просмотров 6 ]

Статус
Проверен 
 
Размер  299.02 МБ
Приватный: Нет (DHT включён)
.torrent скачан  0
 


     Отправить личное сообщение
   
Страница 1 из 1
Показать сообщения за:  Поле сортировки  
Начать новую тему Ответить на тему


Сейчас этот форум просматривают: нет зарегистрированных пользователей и гости: 0


Вы не можете начинать темы
Вы не можете отвечать на сообщения
Вы не можете редактировать свои сообщения
Вы не можете удалять свои сообщения
Вы не можете добавлять вложения

Перейти:  
cron