Начать новую тему Ответить на тему
Статистика раздачи
Размер: 226.14 МБ | Добавлен: 05 май 2020, 10:43 | Скачали: 0
Сидеров: 0  [0 байт/сек]    Личеров: 0  [0 байт/сек]
Пред. тема | След. тема 

Автор
Сообщение

СообщениеДобавлено: 05 май 2020, 10:43 

Ответить с цитатой 

Joan Armatrading / Hearts And Flowers
Жанр: Folk Rock, Jazz-Rock
Носитель: CD
Страна-производитель диска (релиза): UK
Год издания: 1990
Издатель (лейбл): A&M Records
Номер по каталогу: 395 298-2
Аудиокодек: FLAC (*.flac)
Тип рипа: tracks+.cue
Продолжительность: 00:39:20
Источник: локальная сеть
Наличие сканов в содержимом раздачи: нет
Треклист:
01. More Than One Kind Of Love
02. Hearts And Flowers
03. Promise Land
04. Someone's In The Background
05. Can't Let Go
06. Free
07. Something In The Air Tonight
08. Always
09. Good Times
10. The Power Of Dreams
Код:
X Lossless Decoder version 20161007 (149.3)
XLD extraction logfile from 2017-03-27 13:30:59 +0100
Joan Armatrading / Hearts And Flowers
Used drive : MATSHITA DVD-R   UJ-875 (revision DB09)
Media type : Pressed CD
Ripper mode             : XLD Secure Ripper
Disable audio cache     : OK for the drive with a cache less than 1375KiB
Make use of C2 pointers : NO
Read offset correction  : 102
Max retry count         : 100
Gap status              : Analyzed, Appended (except HTOA)
TOC of the extracted CD
     Track |   Start  |  Length  | Start sector | End sector
    ---------------------------------------------------------
        1  | 00:00:00 | 05:38:05 |         0    |    25354
        2  | 05:38:05 | 03:43:37 |     25355    |    42116
        3  | 09:21:42 | 04:05:35 |     42117    |    60526
        4  | 13:27:02 | 04:01:43 |     60527    |    78644
        5  | 17:28:45 | 04:14:30 |     78645    |    97724
        6  | 21:43:00 | 03:25:65 |     97725    |   113164
        7  | 25:08:65 | 04:36:67 |    113165    |   133931
        8  | 29:45:57 | 02:00:00 |    133932    |   142931
        9  | 31:45:57 | 04:25:20 |    142932    |   162826
       10  | 36:11:02 | 03:13:15 |    162827    |   177316
List of alternate offset correction values
        #  | Absolute | Relative | Confidence
    ------------------------------------------
        1  |    114   |     12   |     28
AccurateRip Summary (DiscID: 000fc92e-007c040d-73093c0a)
    Track 01 : OK (v1+v2, confidence 13/41)
    Track 02 : OK (v1+v2, confidence 13/40)
    Track 03 : OK (v1+v2, confidence 13/41)
    Track 04 : OK (v1+v2, confidence 13/40)
    Track 05 : OK (v1+v2, confidence 12/40)
    Track 06 : OK (v1+v2, confidence 13/41)
    Track 07 : OK (v1+v2, confidence 13/39)
    Track 08 : OK (v1+v2, confidence 12/39)
    Track 09 : OK (v1+v2, confidence 13/40)
    Track 10 : OK (v1+v2, confidence 13/40)
        ->All tracks accurately ripped.
All Tracks
    Album gain               : -0.55 dB
    Peak                     : 0.820587
    Statistics
        Read error                           : 0
        Jitter error (maybe fixed)           : 0
        Retry sector count                   : 4
        Damaged sector count                 : 0
Track 01
    Filename : /Users/gail/Music/01 - More Than One Kind Of Love.flac
    Pre-gap length : 00:02:00
    Track gain               : -0.39 dB
    Peak                     : 0.764587
    CRC32 hash (test run)    : 8A6DB73F
    CRC32 hash               : 8A6DB73F
    CRC32 hash (skip zero)   : C38F90AD
    AccurateRip v1 signature : ADFFD8A4
    AccurateRip v2 signature : 5086D57E
        ->Accurately ripped (v1+v2, confidence 3+10/41)
    Statistics
        Read error                           : 0
        Jitter error (maybe fixed)           : 0
        Retry sector count                   : 4
        Damaged sector count                 : 0
Track 02
    Filename : /Users/gail/Music/02 - Hearts And Flowers.flac
    Pre-gap length : 00:00:73
    Track gain               : 1.79 dB
    Peak                     : 0.622772
    CRC32 hash (test run)    : C3F29990
    CRC32 hash               : C3F29990
    CRC32 hash (skip zero)   : 99E20DD3
    AccurateRip v1 signature : FC1E1BD8
    AccurateRip v2 signature : 62B9CA02
        ->Accurately ripped (v1+v2, confidence 3+10/40)
    Statistics
        Read error                           : 0
        Jitter error (maybe fixed)           : 0
        Retry sector count                   : 0
        Damaged sector count                 : 0
Track 03
    Filename : /Users/gail/Music/03 - Promise Land.flac
    Pre-gap length : 00:00:40
    Track gain               : -0.20 dB
    Peak                     : 0.813202
    CRC32 hash (test run)    : C6FAD428
    CRC32 hash               : C6FAD428
    CRC32 hash (skip zero)   : 69FE5CFA
    AccurateRip v1 signature : 41BD7A0E
    AccurateRip v2 signature : CF416B10
        ->Accurately ripped (v1+v2, confidence 3+10/41)
    Statistics
        Read error                           : 0
        Jitter error (maybe fixed)           : 0
        Retry sector count                   : 0
        Damaged sector count                 : 0
Track 04
    Filename : /Users/gail/Music/04 - Someone's In The Background.flac
    Track gain               : -0.11 dB
    Peak                     : 0.820587
    CRC32 hash (test run)    : 6A76E1F5
    CRC32 hash               : 6A76E1F5
    CRC32 hash (skip zero)   : AFA4C7F8
    AccurateRip v1 signature : F8D8E275
    AccurateRip v2 signature : 40750130
        ->Accurately ripped (v1+v2, confidence 3+10/40)
    Statistics
        Read error                           : 0
        Jitter error (maybe fixed)           : 0
        Retry sector count                   : 0
        Damaged sector count                 : 0
Track 05
    Filename : /Users/gail/Music/05 - Can't Let Go.flac
    Track gain               : 0.76 dB
    Peak                     : 0.565063
    CRC32 hash (test run)    : 40A0E75D
    CRC32 hash               : 40A0E75D
    CRC32 hash (skip zero)   : 1A024646
    AccurateRip v1 signature : 397C1278
    AccurateRip v2 signature : C9CF6E5A
        ->Accurately ripped (v1+v2, confidence 2+10/40)
    Statistics
        Read error                           : 0
        Jitter error (maybe fixed)           : 0
        Retry sector count                   : 0
        Damaged sector count                 : 0
Track 06
    Filename : /Users/gail/Music/06 - Free.flac
    Track gain               : -1.64 dB
    Peak                     : 0.809479
    CRC32 hash (test run)    : F6313BE6
    CRC32 hash               : F6313BE6
    CRC32 hash (skip zero)   : B7E793E0
    AccurateRip v1 signature : 2D3F886F
    AccurateRip v2 signature : 4DBDE886
        ->Accurately ripped (v1+v2, confidence 3+10/41)
    Statistics
        Read error                           : 0
        Jitter error (maybe fixed)           : 0
        Retry sector count                   : 0
        Damaged sector count                 : 0
Track 07
    Filename : /Users/gail/Music/07 - Something In The Air Tonight.flac
    Pre-gap length : 00:00:53
    Track gain               : -1.03 dB
    Peak                     : 0.791138
    CRC32 hash (test run)    : 6E13939E
    CRC32 hash               : 6E13939E
    CRC32 hash (skip zero)   : 3848B9B1
    AccurateRip v1 signature : 49FE5D6B
    AccurateRip v2 signature : 61068140
        ->Accurately ripped (v1+v2, confidence 3+10/39)
    Statistics
        Read error                           : 0
        Jitter error (maybe fixed)           : 0
        Retry sector count                   : 0
        Damaged sector count                 : 0
Track 08
    Filename : /Users/gail/Music/08 - Always.flac
    Pre-gap length : 00:00:45
    Track gain               : 2.16 dB
    Peak                     : 0.559326
    CRC32 hash (test run)    : D0DD41BB
    CRC32 hash               : D0DD41BB
    CRC32 hash (skip zero)   : DBC239A4
    AccurateRip v1 signature : 5FD6584F
    AccurateRip v2 signature : 9E3FC41A
        ->Accurately ripped (v1+v2, confidence 2+10/39)
    Statistics
        Read error                           : 0
        Jitter error (maybe fixed)           : 0
        Retry sector count                   : 0
        Damaged sector count                 : 0
Track 09
    Filename : /Users/gail/Music/09 - Good Times.flac
    Pre-gap length : 00:00:55
    Track gain               : -1.73 dB
    Peak                     : 0.814484
    CRC32 hash (test run)    : A5E912BB
    CRC32 hash               : A5E912BB
    CRC32 hash (skip zero)   : 54518A71
    AccurateRip v1 signature : B4AD4051
    AccurateRip v2 signature : 77CA2246
        ->Accurately ripped (v1+v2, confidence 3+10/40)
    Statistics
        Read error                           : 0
        Jitter error (maybe fixed)           : 0
        Retry sector count                   : 0
        Damaged sector count                 : 0
Track 10
    Filename : /Users/gail/Music/10 - The Power Of Dreams.flac
    Pre-gap length : 00:01:02
    Track gain               : 0.96 dB
    Peak                     : 0.716370
    CRC32 hash (test run)    : 520808C0
    CRC32 hash               : 520808C0
    CRC32 hash (skip zero)   : 91D3DCE3
    AccurateRip v1 signature : 3F59ED6E
    AccurateRip v2 signature : 8E878D32
        ->Accurately ripped (v1+v2, confidence 3+10/40)
    Statistics
        Read error                           : 0
        Jitter error (maybe fixed)           : 0
        Retry sector count                   : 0
        Damaged sector count                 : 0
No errors occurred
End of status report
-----BEGIN XLD SIGNATURE-----
k3oaiGLJ6E1nl6efCBufObQtdrIOJdpd2pTn.dJdPjDVbV.H9Rqpnv2EYaYCNAdcKm_TbrRGgc14Zm1JvJGDtN71MmqmEGCDuSJ9yYq
-----END XLD SIGNATURE-----
Код:
TITLE "Hearts And Flowers"
PERFORMER "Joan Armatrading"
REM GENRE "Rock"
REM DISCID 73093C0A
REM REPLAYGAIN_ALBUM_GAIN -0.55 dB
REM REPLAYGAIN_ALBUM_PEAK 0.820587
FILE "01 - More Than One Kind Of Love.flac" WAVE
  TRACK 01 AUDIO
    TITLE "More Than One Kind Of Love"
    REM REPLAYGAIN_TRACK_GAIN -0.39 dB
    REM REPLAYGAIN_TRACK_PEAK 0.764587
    INDEX 01 00:00:00
  TRACK 02 AUDIO
    TITLE "Hearts And Flowers"
    REM REPLAYGAIN_TRACK_GAIN 1.79 dB
    REM REPLAYGAIN_TRACK_PEAK 0.622772
    INDEX 00 05:37:07
FILE "02 - Hearts And Flowers.flac" WAVE
    INDEX 01 00:00:00
  TRACK 03 AUDIO
    TITLE "Promise Land"
    REM REPLAYGAIN_TRACK_GAIN -0.20 dB
    REM REPLAYGAIN_TRACK_PEAK 0.813202
    INDEX 00 03:42:72
FILE "03 - Promise Land.flac" WAVE
    INDEX 01 00:00:00
FILE "04 - Someone's In The Background.flac" WAVE
  TRACK 04 AUDIO
    TITLE "Someone's In The Background"
    REM REPLAYGAIN_TRACK_GAIN -0.11 dB
    REM REPLAYGAIN_TRACK_PEAK 0.820587
    INDEX 01 00:00:00
FILE "05 - Can't Let Go.flac" WAVE
  TRACK 05 AUDIO
    TITLE "Can't Let Go"
    REM REPLAYGAIN_TRACK_GAIN 0.76 dB
    REM REPLAYGAIN_TRACK_PEAK 0.565063
    INDEX 01 00:00:00
FILE "06 - Free.flac" WAVE
  TRACK 06 AUDIO
    TITLE "Free"
    REM REPLAYGAIN_TRACK_GAIN -1.64 dB
    REM REPLAYGAIN_TRACK_PEAK 0.809479
    INDEX 01 00:00:00
  TRACK 07 AUDIO
    TITLE "Something In The Air Tonight"
    REM REPLAYGAIN_TRACK_GAIN -1.03 dB
    REM REPLAYGAIN_TRACK_PEAK 0.791138
    INDEX 00 03:25:12
FILE "07 - Something In The Air Tonight.flac" WAVE
    INDEX 01 00:00:00
  TRACK 08 AUDIO
    TITLE "Always"
    REM REPLAYGAIN_TRACK_GAIN 2.16 dB
    REM REPLAYGAIN_TRACK_PEAK 0.559326
    INDEX 00 04:36:22
FILE "08 - Always.flac" WAVE
    INDEX 01 00:00:00
  TRACK 09 AUDIO
    TITLE "Good Times"
    REM REPLAYGAIN_TRACK_GAIN -1.73 dB
    REM REPLAYGAIN_TRACK_PEAK 0.814484
    INDEX 00 01:59:20
FILE "09 - Good Times.flac" WAVE
    INDEX 01 00:00:00
  TRACK 10 AUDIO
    TITLE "The Power Of Dreams"
    REM REPLAYGAIN_TRACK_GAIN 0.96 dB
    REM REPLAYGAIN_TRACK_PEAK 0.716370
    INDEX 00 04:24:18
FILE "10 - The Power Of Dreams.flac" WAVE
    INDEX 01 00:00:00
Правила, инструкции, FAQ!!!
Торрент  Добавлен [05 май 2020, 10:43] Скачать торрент Магнет ссылка
Скачать торрент
[ Размер 18.82 КБ / Просмотров 6 ]

Статус
Проверен 
 
Размер  226.14 МБ
Приватный: Нет (DHT включён)
.torrent скачан  0
 


     Отправить личное сообщение
   
Страница 1 из 1
Показать сообщения за:  Поле сортировки  
Начать новую тему Ответить на тему


Сейчас этот форум просматривают: нет зарегистрированных пользователей и гости: 0


Вы не можете начинать темы
Вы не можете отвечать на сообщения
Вы не можете редактировать свои сообщения
Вы не можете удалять свои сообщения
Вы не можете добавлять вложения

Перейти:  
cron