Начать новую тему Ответить на тему
Статистика раздачи
Размер: 367.53 МБ | Добавлен: 26 мар 2019, 20:32 | Скачали: 0
Сидеров: 0  [0 байт/сек]    Личеров: 0  [0 байт/сек]
Пред. тема | След. тема 

Автор
Сообщение

СообщениеДобавлено: 26 мар 2019, 20:32 

Ответить с цитатой 

Michael Ruff- Waters of love - Gospel live!
Жанр: Folk-Rock,Gospel
Год выпуска диска: 2006
Производитель диска: Michael Ruff-Ruff MixMusic-BMI/USA/
Аудио кодек: APE
Тип рипа: image+.cue
Битрейт аудио: lossless
Продолжительность: 00:59:11
Трэклист:
1.On my knees
2.Bring you to Jesus
3.If you only knew him
4.Jhere is a savior
5.Faith
6.Wonderful Jesus
7.Water of love
8.Jestimony
9.Have you seen a change
10.Pray with me
11.On my knees jam
Доп. информация: Band:
Joey Heredia-drums,Marco Mendoza,Andrew Gouche-bass,James Harrah-guitar,
Gannin Arnold-acoustic guitar,Renato Neto-keyboards,Alex Acuna-percussion,
Maxi Anderson,Bridgette Bryant Blades,Alex Brown,John HolleyMaxayne Levis,Olivia Ruff,Leslie Smith,Tata Vega-vocals,
Eric Gilliom-extra vocal parts,
Michael Ruff-piano,organ,SH 101,vocals
Рип из личного архива.
Exact Audio Copy V0.99 prebeta 4 from 23. January 2008
Отчёт EAC об извлечении, выполненном 4. марта 2010, 19:44
Michael Ruff / Waters of love - Gospel live!
Дисковод: _NEC DVD_RW ND-2510A Adapter: 1 ID: 0
Режим чтения : Достоверность
Использование точного потока : Да
Отключение кэша аудио : Да
Использование указателей C2 : Нет
Коррекция смещения при чтении : 48
Способность читать области Lead-in и Lead-out : Нет
Заполнение пропущенных сэмплов тишиной : Да
Удаление блоков с тишиной в начале и конце : Нет
При вычислениях CRC использовались нулевые сэмплы : Да
Интерфейс : Установленный внешний ASPI-интерфейс
Выходной формат : Внутренние WAV-операции
Формат сэмплов : 44.100 Гц; 16 бит; стерео
TOC извлечённого CD
Трек | Старт | Длительность | Начальный сектор | Конечный сектор
---------------------------------------------------------------------
1 | 0:00.00 | 6:02.03 | 0 | 27152
2 | 6:02.03 | 4:57.57 | 27153 | 49484
3 | 10:59.60 | 4:27.65 | 49485 | 69574
4 | 15:27.50 | 4:48.13 | 69575 | 91187
5 | 20:15.63 | 3:03.74 | 91188 | 104986
6 | 23:19.62 | 5:34.50 | 104987 | 130086
7 | 28:54.37 | 6:11.31 | 130087 | 157942
8 | 35:05.68 | 6:03.72 | 157943 | 185239
9 | 41:09.65 | 5:08.42 | 185240 | 208381
10 | 46:18.32 | 8:28.67 | 208382 | 246548
11 | 54:47.24 | 4:23.43 | 246549 | 266316
Характеристики диапазона извлечения и сообщения об ошибках
Выбранный диапазон
Имя файла E:\ПРОЕКТ\Michael Ruff-warers of Live-Gospel Live\Michael Ruff - Waters of love - Gospel live!.wav
Пиковый уровень 100.0 %
Качество диапазона 100.0 %
CRC теста 55C1B432
CRC копии 55C1B432
Копирование... OK
Ошибок не произошло
AccurateRip: сводка
Трек 1 нет в базе данных
Трек 2 нет в базе данных
Трек 3 нет в базе данных
Трек 4 нет в базе данных
Трек 5 нет в базе данных
Трек 6 нет в базе данных
Трек 7 нет в базе данных
Трек 8 нет в базе данных
Трек 9 нет в базе данных
Трек 10 нет в базе данных
Трек 11 нет в базе данных
Ни одного трека нет в базе AccurateRip
Конец отчёта
Правила, инструкции, FAQ!!!
Торрент  Добавлен [26 мар 2019, 20:32] Скачать торрент Магнет ссылка
Скачать торрент
[ Размер 15.04 КБ / Просмотров 4 ]

Статус
Проверен 
 
Размер  367.53 МБ
Приватный: Нет (DHT включён)
.torrent скачан  0
 


     Отправить личное сообщение
   
Страница 1 из 1
Показать сообщения за:  Поле сортировки  
Начать новую тему Ответить на тему


Сейчас этот форум просматривают: нет зарегистрированных пользователей и гости: 0


Вы не можете начинать темы
Вы не можете отвечать на сообщения
Вы не можете редактировать свои сообщения
Вы не можете удалять свои сообщения
Вы не можете добавлять вложения

Перейти:  
cron