Начать новую тему Ответить на тему
Статистика раздачи
Размер: 448.95 МБ | Добавлен: 26 мар 2019, 20:05 | Скачали: 2
Сидеров: 41  [0 байт/сек]    Личеров: 0  [0 байт/сек]
Пред. тема | След. тема 

Автор
Сообщение

СообщениеДобавлено: 26 мар 2019, 20:05 

Ответить с цитатой 

America - The best of America
Жанр: Folk-rock
Год выпуска диска: 1996
Аудио кодек: APE
Тип рипа: image+.cue
Битрейт аудио: lossless
Продолжительность: 68:21
Трэклист:
1. You can do magic 3'54
2. The border 4`00
3. The last unicorn 3'07
4. All my life 3'02
5. Survival 3'13
6. Tall treasures 3'14
7. One morning 2'11
8. Honey 3'44
9. My dear 4'16
10. One in a million 2'53
11. Right before your eyes 3'46
12. We got all night 3'24
13. Lady with a bluebird 3'03
14. Only game in town 4'12
15. Ventura highway (live) 3'36
16. Daisy Jane (live) 2'57
17. I need you (live) 2'27
18. Tin man (live) 3'34
19. Sister golden hair (live) 3'16
20. Horse with no name (live) 4'00
Доп. информация:
Exact Audio Copy V0.99 prebeta 4 from 23. January 2008
Отчёт EAC об извлечении, выполненном 18. сентября 2009, 21:36
America / The best of America
Дисковод: ASUS CRW-4824A Adapter: 0 ID: 0
Режим чтения : Достоверность
Использование точного потока : Да
Отключение кэша аудио : Да
Использование указателей C2 : Нет
Коррекция смещения при чтении : 6
Способность читать области Lead-in и Lead-out : Нет
Заполнение пропущенных сэмплов тишиной : Да
Удаление блоков с тишиной в начале и конце : Нет
При вычислениях CRC использовались нулевые сэмплы : Да
Интерфейс : Установленный внешний ASPI-интерфейс
Выходной формат : Внутренние WAV-операции
Формат сэмплов : 44.100 Гц; 16 бит; стерео
TOC извлечённого CD
Трек | Старт | Длительность | Начальный сектор | Конечный сектор
---------------------------------------------------------------------
1 | 0:00.00 | 3:55.45 | 0 | 17669
2 | 3:55.45 | 4:01.50 | 17670 | 35794
3 | 7:57.20 | 3:09.35 | 35795 | 50004
4 | 11:06.55 | 3:04.32 | 50005 | 63836
5 | 14:11.12 | 3:14.48 | 63837 | 78434
6 | 17:25.60 | 3:16.25 | 78435 | 93159
7 | 20:42.10 | 2:13.10 | 93160 | 103144
8 | 22:55.20 | 3:46.40 | 103145 | 120134
9 | 26:41.60 | 4:18.27 | 120135 | 139511
10 | 31:00.12 | 2:54.63 | 139512 | 152624
11 | 33:55.00 | 3:48.40 | 152625 | 169764
12 | 37:43.40 | 3:25.52 | 169765 | 185191
13 | 41:09.17 | 3:04.53 | 185192 | 199044
14 | 44:13.70 | 4:13.70 | 199045 | 218089
15 | 48:27.65 | 3:36.37 | 218090 | 234326
16 | 52:04.27 | 2:57.68 | 234327 | 247669
17 | 55:02.20 | 2:27.72 | 247670 | 258766
18 | 57:30.17 | 3:34.40 | 258767 | 274856
19 | 61:04.57 | 3:16.18 | 274857 | 289574
20 | 64:21.00 | 4:00.17 | 289575 | 307591
Характеристики диапазона извлечения и сообщения об ошибках
Выбранный диапазон
Имя файла D:\Торрент\America\Am\America - The best of America.wav
Пиковый уровень 98.0 %
Качество диапазона 100.0 %
CRC теста 2AB9D214
CRC копии 2AB9D214
Копирование... OK
Ошибок не произошло
Конец отчёта
Правила, инструкции, FAQ!!!
Торрент  Добавлен [26 мар 2019, 20:05] Скачать торрент Магнет ссылка
Скачать торрент
[ Размер 18.27 КБ / Просмотров 14 ]

Статус
Проверен 
 
Размер  448.95 МБ
Приватный: Нет (DHT включён)
.torrent скачан  2
 


     Отправить личное сообщение
   
Страница 1 из 1
Показать сообщения за:  Поле сортировки  
Начать новую тему Ответить на тему


Сейчас этот форум просматривают: нет зарегистрированных пользователей и гости: 0


Вы не можете начинать темы
Вы не можете отвечать на сообщения
Вы не можете редактировать свои сообщения
Вы не можете удалять свои сообщения
Вы не можете добавлять вложения

Перейти:  
cron