Начать новую тему Ответить на тему
Статистика раздачи
Размер: 221.17 МБ | Добавлен: 26 мар 2019, 19:54 | Скачали: 0
Сидеров: 0  [0 байт/сек]    Личеров: 0  [0 байт/сек]
Пред. тема | След. тема 

Автор
Сообщение

СообщениеДобавлено: 26 мар 2019, 19:54 

Ответить с цитатой 

Mountaineer - When The Air Is Bright They Shine
Жанр: Folk Rock, Acoustic
Год выпуска диска: 2006
Производитель диска: UK
Аудио кодек: FLAC
Тип рипа: tracks+.cue
Битрейт аудио: lossless
Продолжительность: 37:12
Трэклист:
01 A Town Called Ivanhoe (3:19)
02 A Line For Every Letter (3:52)
03 Eliza (A Day For Every Hour) (4:24)
04 Don't You Miss Her (4:06)
05 Leave It All Behind (3:48)
06 You Pay No Mind (2:50)
07 Morning Mist (3:52)
08 Ambassador (3:07)
09 Company (3:42)
10 Just A Breeze (4:08)
Доп. информация: ripped by myself from the original CD
Label: Type Records
Catalog#: TYPE014
Format: CD, Album, Digipak
Country: UK
Released: 02 Oct 2006
Genre: Rock
Style: Folk Rock, Acoustic
Credits: Arranged By, Producer - Mountaineer
Artwork By - Monika Herodotou
Bass [Electric], Backing Vocals - Anna Bertermann
Co-producer - Frank Mollena (tracks: 1 to 5, 10)
Drums, Percussion, Gong, Kalimba - Fiona McKenzie
Guitar [Electric - Left Channel] - Alexander Rischer
Guitar [Electric - Right Channel], Piano - Red (21)
Guitar [Pedal Steel] - Oliver Stangl
Mastered By - Michael Heilrath
Organ, Kalimba, Glockenspiel, Melodica, Voice - Katja Raine
Trumpet - Florian Meier
Voice, Acoustic Guitar, Congas - Henning Wandhoff
Written-By - Henning Wandhoff
Notes: Mastered at Bereich 03, Munich.
© & ℗ Type Recordings 2006.
Distributed worldwide by Baked Goods.
#777Mountaineer's third album takes us into a sun-drenched paradise, with tracks taking cues from classic 60s and 70s folk-rock and bossa!
TYPE014“When The Air Is Bright They Shine” by Mountaineer
Sun-drenched paradise, taking cues from classic 60s and 70s folk-rock and bossa! Buy
Boomkat
Emusic
Via Soundcloud Mountaineer started out life as the project of German singer and songwriter Henning Wandhoff but soon after the release of his first album ‘Sunny Day’ he began to itch for collaborators, especially in taking his epic songs into the live environment. After a few years and a few lineup changes he was eventually left with the crack team of Katja Raine, Fiona Mckenzie, Anna Bertermann and Alexander Rischer and he could begin work on his third album.
Wandhoff had a specific goal in mind as he pieced together the initial skeletons of ‘When the Air is Bright They Shine’; he was listening to the classic LPs of the late 60s and 70s; 35-40 minutes, 10 tracks, every track perfectly realised and the album holding together without filler. There were none of those modern devices used to trick people into thinking they have got something a little more worthy than it really is – just pure pop music. He wanted to re-create this, but not make something knowingly retro, instead to put together his album with the same sort of high bar of quality control, to put together 10 songs that embodied the philosophies of those classic albums without actually mimicking them. After two years of work Wandhoff finally succeeded and had moulded the tracks into leftfield pop gems, raking in influence from decades of essential music.
The album opens with ‘A Town Called Ivanhoe’ and we’re already on the right path – the track has the best elements of Jim O’Rourke, Kings of Convenience or Jose Gonzalez, but manage to inject its own special Bossa charm which carries across the whole album. Imagine driving along a beach on the West Coast of the USA as the sun is setting and you’ll have some idea of the rich moods captured on this ten track disc. When we reach ‘Eliza (A Day For Every Hour)’ it’s clear Wandhoff has a deft skill in pop songwriting – this is a track that wouldn’t sound out of place on any self-respecting radio show, but what’s more it’s actually credible too. As Wandhoff’s soft vocals trip and tread over brushed drums and slide guitar it is simply impossible not to fall in love with the music.
In cynical times like these it has never been more appropriate to deliver an honest album of great music, music that makes you feel good to be alive. ‘When The Air Is Bright They Shine’ is exactly that, and its unforgettable sun-drenched moods will take you all the way to paradise and back again.
Код:
Exact Audio Copy V0.99 prebeta 5 from 4. May 2009
EAC extraction logfile from 22. August 2011, 17:12
Mountaineer / When The Air Is Bright They Shine
Used drive  : TSSTcorpCDDVDW TS-H653G   Adapter: 0  ID: 1
Read mode               : Secure
Utilize accurate stream : Yes
Defeat audio cache      : Yes
Make use of C2 pointers : No
Read offset correction                      : 6
Overread into Lead-In and Lead-Out          : No
Fill up missing offset samples with silence : Yes
Delete leading and trailing silent blocks   : No
Null samples used in CRC calculations       : Yes
Used interface                              : Native Win32 interface for Win NT & 2000
Gap handling                                : Appended to previous track
Used output format              : User Defined Encoder
Selected bitrate                : 768 kBit/s
Quality                         : High
Add ID3 tag                     : No
Command line compressor         : C:\Program Files\Exact Audio Copy\FLAC\FLAC.EXE
Additional command line options : -V -8 -T "artist=%a" -T "title=%t" -T "album=%g" -T "date=%y" -T "tracknumber=%n" -T "genre=%m" %s
TOC of the extracted CD
     Track |   Start  |  Length  | Start sector | End sector
    ---------------------------------------------------------
        1  |  0:00.00 |  3:19.35 |         0    |    14959
        2  |  3:19.35 |  3:52.17 |     14960    |    32376
        3  |  7:11.52 |  4:24.07 |     32377    |    52183
        4  | 11:35.59 |  4:06.12 |     52184    |    70645
        5  | 15:41.71 |  3:48.05 |     70646    |    87750
        6  | 19:30.01 |  2:50.16 |     87751    |   100516
        7  | 22:20.17 |  3:52.63 |    100517    |   117979
        8  | 26:13.05 |  3:07.53 |    117980    |   132057
        9  | 29:20.58 |  3:42.72 |    132058    |   148779
       10  | 33:03.55 |  4:08.64 |    148780    |   167443
Track  1
     Filename I:\Musika\my torrents\Mountaineer - When The Air Is Bright They Shine\01. Mountaineer – A Town Called Ivanhoe.wav
     Pre-gap length  0:00:02.00
     Peak level 97.7 %
     Track quality 100.0 %
     Test CRC 727C2654
     Copy CRC 727C2654
     Accurately ripped (confidence 6)  [54B5C9C2]
     Copy OK
Track  2
     Filename I:\Musika\my torrents\Mountaineer - When The Air Is Bright They Shine\02. Mountaineer – A Line For Every Letter.wav
     Pre-gap length  0:00:01.86
     Peak level 97.7 %
     Track quality 100.0 %
     Test CRC 6F1B4575
     Copy CRC 6F1B4575
     Accurately ripped (confidence 6)  [58AD1F56]
     Copy OK
Track  3
     Filename I:\Musika\my torrents\Mountaineer - When The Air Is Bright They Shine\03. Mountaineer – Eliza (A Day For Every Hour).wav
     Pre-gap length  0:00:01.86
     Peak level 97.7 %
     Track quality 100.0 %
     Test CRC 2C156C1C
     Copy CRC 2C156C1C
     Accurately ripped (confidence 6)  [F6716F60]
     Copy OK
Track  4
     Filename I:\Musika\my torrents\Mountaineer - When The Air Is Bright They Shine\04. Mountaineer – Don't You Miss Her.wav
     Pre-gap length  0:00:01.86
     Peak level 97.7 %
     Track quality 100.0 %
     Test CRC F4A022AE
     Copy CRC F4A022AE
     Accurately ripped (confidence 7)  [1F5AD781]
     Copy OK
Track  5
     Filename I:\Musika\my torrents\Mountaineer - When The Air Is Bright They Shine\05. Mountaineer – Leave It All Behind.wav
     Pre-gap length  0:00:01.86
     Peak level 97.7 %
     Track quality 100.0 %
     Test CRC E09BE5B1
     Copy CRC E09BE5B1
     Accurately ripped (confidence 6)  [E325F9FE]
     Copy OK
Track  6
     Filename I:\Musika\my torrents\Mountaineer - When The Air Is Bright They Shine\06. Mountaineer – You Pay No Mind.wav
     Pre-gap length  0:00:01.86
     Peak level 97.7 %
     Track quality 100.0 %
     Test CRC C8D66977
     Copy CRC C8D66977
     Accurately ripped (confidence 6)  [A59F4806]
     Copy OK
Track  7
     Filename I:\Musika\my torrents\Mountaineer - When The Air Is Bright They Shine\07. Mountaineer – Morning Mist.wav
     Pre-gap length  0:00:01.86
     Peak level 97.7 %
     Track quality 100.0 %
     Test CRC 9C6FBEE1
     Copy CRC 9C6FBEE1
     Accurately ripped (confidence 7)  [59006C4E]
     Copy OK
Track  8
     Filename I:\Musika\my torrents\Mountaineer - When The Air Is Bright They Shine\08. Mountaineer – Ambassador.wav
     Pre-gap length  0:00:01.86
     Peak level 97.7 %
     Track quality 100.0 %
     Test CRC DB392213
     Copy CRC DB392213
     Accurately ripped (confidence 6)  [CA0DBEB2]
     Copy OK
Track  9
     Filename I:\Musika\my torrents\Mountaineer - When The Air Is Bright They Shine\09. Mountaineer – Company.wav
     Pre-gap length  0:00:01.86
     Peak level 97.7 %
     Track quality 100.0 %
     Test CRC 950194FC
     Copy CRC 950194FC
     Accurately ripped (confidence 7)  [8E83BDB8]
     Copy OK
Track 10
     Filename I:\Musika\my torrents\Mountaineer - When The Air Is Bright They Shine\10. Mountaineer – Just A Breeze.wav
     Pre-gap length  0:00:02.86
     Peak level 97.7 %
     Track quality 100.0 %
     Test CRC 9EF336BD
     Copy CRC 9EF336BD
     Accurately ripped (confidence 6)  [F1E2B7C1]
     Copy OK
All tracks accurately ripped
No errors occurred
End of status report
Код:
REM DATE 2006
REM DISCID 8308B80A
REM COMMENT "ExactAudioCopy v0.99pb5"
FILE "01. Mountaineer – A Town Called Ivanhoe.wav" WAVE
  TRACK 01 AUDIO
    INDEX 01 00:00:00
  TRACK 02 AUDIO
    INDEX 00 03:17:45
FILE "02. Mountaineer – A Line For Every Letter.wav" WAVE
    INDEX 01 00:00:00
  TRACK 03 AUDIO
    INDEX 00 03:50:27
FILE "03. Mountaineer – Eliza (A Day For Every Hour).wav" WAVE
    INDEX 01 00:00:00
  TRACK 04 AUDIO
    INDEX 00 04:22:17
FILE "04. Mountaineer – Don't You Miss Her.wav" WAVE
    INDEX 01 00:00:00
  TRACK 05 AUDIO
    INDEX 00 04:04:22
FILE "05. Mountaineer – Leave It All Behind.wav" WAVE
    INDEX 01 00:00:00
  TRACK 06 AUDIO
    INDEX 00 03:46:15
FILE "06. Mountaineer – You Pay No Mind.wav" WAVE
    INDEX 01 00:00:00
  TRACK 07 AUDIO
    INDEX 00 02:48:26
FILE "07. Mountaineer – Morning Mist.wav" WAVE
    INDEX 01 00:00:00
  TRACK 08 AUDIO
    INDEX 00 03:50:73
FILE "08. Mountaineer – Ambassador.wav" WAVE
    INDEX 01 00:00:00
  TRACK 09 AUDIO
    INDEX 00 03:05:63
FILE "09. Mountaineer – Company.wav" WAVE
    INDEX 01 00:00:00
  TRACK 10 AUDIO
    INDEX 00 03:40:07
FILE "10. Mountaineer – Just A Breeze.wav" WAVE
    INDEX 01 00:00:00
Правила, инструкции, FAQ!!!
Торрент  Добавлен [26 мар 2019, 19:54] Скачать торрент Магнет ссылка
Скачать торрент
[ Размер 36.88 КБ / Просмотров 1 ]

Статус
Проверен 
 
Размер  221.17 МБ
Приватный: Нет (DHT включён)
.torrent скачан  0
 


     Отправить личное сообщение
   
Страница 1 из 1
Показать сообщения за:  Поле сортировки  
Начать новую тему Ответить на тему


Сейчас этот форум просматривают: нет зарегистрированных пользователей и гости: 0


Вы не можете начинать темы
Вы не можете отвечать на сообщения
Вы не можете редактировать свои сообщения
Вы не можете удалять свои сообщения
Вы не можете добавлять вложения

Перейти:  
cron