Начать новую тему Ответить на тему
Статистика раздачи
Размер: 313.06 МБ | Добавлен: 26 мар 2019, 20:46 | Скачали: 0
Сидеров: 0  [0 байт/сек]    Личеров: 0  [0 байт/сек]
Пред. тема | След. тема 

Автор
Сообщение

СообщениеДобавлено: 26 мар 2019, 20:46 

Ответить с цитатой 

Valerie Carter - The Way It Is
Жанр: Folk, Pop-Rock
Носитель: CD
Страна-производитель диска (релиза): САСШ
Год издания: 1996
Издатель (лейбл): Countdown Records / Unity
Номер по каталогу: 77737-2
Аудиокодек: FLAC (*.flac)
Тип рипа: tracks+.cue
Битрейт аудио: lossless
Продолжительность: 00:48:35
Источник: Подарок Senor Peligro
Наличие сканов в содержимом раздачи: да
Треклист:
1 The Way It Is - Valerie Carter / Mark Goldenberg / Kevin Hunter 4:01
2 Love Needs a Heart - Jackson Browne / Valerie Carter / Lowell George 3:43
3 Sea of Stars - Valerie Carter / Mark Goldenberg / Kevin Hunter 3:43
4 Into the Mystic - Van Morrison 4:08
5 Birds - Neil Young 3:42
6 Who Is She (And What Is She to You) - Stan McKenney / Bill Withers 3:29
7 I Say Amen - Valerie Carter / Tom Snow 3:51
8 When the Blues Come to Call - Tom Snow 4:32
9 I Wonder Why - Tom Snow 4:38
10 Whistle Down the Wind - Tom Waits 5:0
Код:
Exact Audio Copy V1.0 beta 3 from 29. August 2011
EAC extraction logfile from 13. August 2013, 16:45
Valerie Carter / The Way It Is
Used drive  : PLEXTOR DVDR   PX-L890SA   Adapter: 0  ID: 1
Read mode               : Secure
Utilize accurate stream : Yes
Defeat audio cache      : Yes
Make use of C2 pointers : No
Read offset correction                      : 6
Overread into Lead-In and Lead-Out          : No
Fill up missing offset samples with silence : Yes
Delete leading and trailing silent blocks   : No
Null samples used in CRC calculations       : Yes
Used interface                              : Native Win32 interface for Win NT & 2000
Gap handling                                : Appended to previous track
Used output format              : User Defined Encoder
Selected bitrate                : 128 kBit/s
Quality                         : High
Add ID3 tag                     : No
Command line compressor         : C:\Program Files (x86)\Exact Audio Copy\Flac\flac.exe
Additional command line options : -8 -V -T "ARTIST=%artist%" -T "TITLE=%title%" -T "ALBUM=%albumtitle%" -T "DATE=%year%" -T "TRACKNUMBER=%tracknr%" -T "TOTALTRACKS=%numtracks%" -T "GENRE=%genre%" -T "ALBUM ARTIST=%albumartist%" -T "ALBUMARTIST=%albumartist%" -T "COMPOSER=%albumcomposer%" -T "PERFORMER=%albuminterpret%" %haslyrics%-T "LYRICS=%lyrics%"%haslyrics% -T "COMMENT=EAC V1.0 beta 2, Secure Mode, Test & Copy, AccurateRip, FLAC -8" %source%
TOC of the extracted CD
     Track |   Start  |  Length  | Start sector | End sector
    ---------------------------------------------------------
        1  |  0:00.00 |  4:02.00 |         0    |    18149
        2  |  4:02.00 |  3:43.00 |     18150    |    34874
        3  |  7:45.00 |  5:11.20 |     34875    |    58219
        4  | 12:56.20 |  4:08.25 |     58220    |    76844
        5  | 17:04.45 |  3:42.09 |     76845    |    93503
        6  | 20:46.54 |  3:30.00 |     93504    |   109253
        7  | 24:16.54 |  3:51.56 |    109254    |   126634
        8  | 28:08.35 |  4:32.02 |    126635    |   147036
        9  | 32:40.37 |  4:38.48 |    147037    |   167934
       10  | 37:19.10 | 11:16.52 |    167935    |   218686
Track  1
     Filename K:\Nieuw\Valerie Carter - The way it is (1996) [Flac]\01 - The Way It Is.wav
     Pre-gap length  0:00:02.00
     Peak level 100.0 %
     Extraction speed 2.8 X
     Track quality 99.9 %
     Test CRC AA1EC9C4
     Copy CRC AA1EC9C4
     Accurately ripped (confidence 4)  [FF0A1E7F]  (AR v2)
     Copy OK
Track  2
     Filename K:\Nieuw\Valerie Carter - The way it is (1996) [Flac]\02 - Love Needs a Heart.wav
     Peak level 100.0 %
     Extraction speed 3.8 X
     Track quality 100.0 %
     Test CRC A4F282C8
     Copy CRC A4F282C8
     Accurately ripped (confidence 4)  [0A520C82]  (AR v2)
     Copy OK
Track  3
     Filename K:\Nieuw\Valerie Carter - The way it is (1996) [Flac]\03 - Sea of Stars.wav
     Peak level 100.0 %
     Extraction speed 4.4 X
     Track quality 100.0 %
     Test CRC 2E84B28E
     Copy CRC 2E84B28E
     Accurately ripped (confidence 4)  [BC6F5199]  (AR v2)
     Copy OK
Track  4
     Filename K:\Nieuw\Valerie Carter - The way it is (1996) [Flac]\04 - Into the Mystic.wav
     Peak level 100.0 %
     Extraction speed 3.7 X
     Track quality 99.9 %
     Test CRC EE195762
     Copy CRC EE195762
     Accurately ripped (confidence 4)  [93F0C1F0]  (AR v2)
     Copy OK
Track  5
     Filename K:\Nieuw\Valerie Carter - The way it is (1996) [Flac]\05 - Birds.wav
     Peak level 99.8 %
     Extraction speed 3.8 X
     Track quality 99.9 %
     Test CRC 95F4638F
     Copy CRC 95F4638F
     Accurately ripped (confidence 4)  [545808C2]  (AR v2)
     Copy OK
Track  6
     Filename K:\Nieuw\Valerie Carter - The way it is (1996) [Flac]\06 - Who is She (And what is she to you).wav
     Peak level 95.5 %
     Extraction speed 5.1 X
     Track quality 100.0 %
     Test CRC 10D76571
     Copy CRC 10D76571
     Accurately ripped (confidence 4)  [5DE66C9F]  (AR v2)
     Copy OK
Track  7
     Filename K:\Nieuw\Valerie Carter - The way it is (1996) [Flac]\07 - I Say Amen.wav
     Peak level 100.0 %
     Extraction speed 4.2 X
     Track quality 99.9 %
     Test CRC 077893CD
     Copy CRC 077893CD
     Accurately ripped (confidence 4)  [4B61AF97]  (AR v2)
     Copy OK
Track  8
     Filename K:\Nieuw\Valerie Carter - The way it is (1996) [Flac]\08 - When the Blues Come to Call.wav
     Peak level 99.9 %
     Extraction speed 5.7 X
     Track quality 100.0 %
     Test CRC D058766B
     Copy CRC D058766B
     Accurately ripped (confidence 4)  [0269839B]  (AR v2)
     Copy OK
Track  9
     Filename K:\Nieuw\Valerie Carter - The way it is (1996) [Flac]\09 - I Wonder Why.wav
     Pre-gap length  0:00:00.01
     Peak level 100.0 %
     Extraction speed 6.0 X
     Track quality 100.0 %
     Test CRC C9205D2A
     Copy CRC C9205D2A
     Accurately ripped (confidence 4)  [CA4A7636]  (AR v2)
     Copy OK
Track 10
     Filename K:\Nieuw\Valerie Carter - The way it is (1996) [Flac]\10 - Whistle Down the Wind.wav
     Peak level 100.0 %
     Extraction speed 6.9 X
     Track quality 100.0 %
     Test CRC 32E74033
     Copy CRC 32E74033
     Accurately ripped (confidence 4)  [C4E2C458]  (AR v2)
     Copy OK
All tracks accurately ripped
No errors occurred
End of status report
---- CUETools DB Plugin V2.1.3
[CTDB TOCID: a.PK9k1tDNU9cvjUofGOzuoW8yE-] found, Submit result: already submitted
[54444c89] (3/3) Accurately ripped
==== Log checksum 3DA5A8FF83C478377DB64FB9551C5A51F37649319D12992C76070BFAD3E184BF ====
Код:
REM GENRE Folk
REM DATE 1996
REM DISCID 880B630A
REM COMMENT "ExactAudioCopy v1.0b3"
PERFORMER "Valerie Carter"
TITLE "The Way It Is"
FILE "01 - The Way It Is.wav" WAVE
  TRACK 01 AUDIO
    TITLE "The Way It Is"
    PERFORMER "Valerie Carter"
    INDEX 01 00:00:00
FILE "02 - Love Needs a Heart.wav" WAVE
  TRACK 02 AUDIO
    TITLE "Love Needs a Heart"
    PERFORMER "Valerie Carter"
    INDEX 01 00:00:00
FILE "03 - Sea of Stars.wav" WAVE
  TRACK 03 AUDIO
    TITLE "Sea of Stars"
    PERFORMER "Valerie Carter"
    INDEX 01 00:00:00
FILE "04 - Into the Mystic.wav" WAVE
  TRACK 04 AUDIO
    TITLE "Into the Mystic"
    PERFORMER "Valerie Carter"
    INDEX 01 00:00:00
FILE "05 - Birds.wav" WAVE
  TRACK 05 AUDIO
    TITLE "Birds"
    PERFORMER "Valerie Carter"
    INDEX 01 00:00:00
FILE "06 - Who is She (And what is she to you).wav" WAVE
  TRACK 06 AUDIO
    TITLE "Who is She (And what is she to you)"
    PERFORMER "Valerie Carter"
    INDEX 01 00:00:00
FILE "07 - I Say Amen.wav" WAVE
  TRACK 07 AUDIO
    TITLE "I Say Amen"
    PERFORMER "Valerie Carter"
    INDEX 01 00:00:00
FILE "08 - When the Blues Come to Call.wav" WAVE
  TRACK 08 AUDIO
    TITLE "When the Blues Come to Call"
    PERFORMER "Valerie Carter"
    INDEX 01 00:00:00
  TRACK 09 AUDIO
    TITLE "I Wonder Why"
    PERFORMER "Valerie Carter"
    INDEX 00 04:32:01
FILE "09 - I Wonder Why.wav" WAVE
    INDEX 01 00:00:00
FILE "10 - Whistle Down the Wind.wav" WAVE
  TRACK 10 AUDIO
    TITLE "Whistle Down the Wind"
    PERFORMER "Valerie Carter"
    INDEX 01 00:00:00
Правила, инструкции, FAQ!!!
Торрент  Добавлен [26 мар 2019, 20:46] Скачать торрент Магнет ссылка
Скачать торрент
[ Размер 13.75 КБ / Просмотров 2 ]

Статус
Проверен 
 
Размер  313.06 МБ
Приватный: Нет (DHT включён)
.torrent скачан  0
 


     Отправить личное сообщение
   
Страница 1 из 1
Показать сообщения за:  Поле сортировки  
Начать новую тему Ответить на тему


Сейчас этот форум просматривают: нет зарегистрированных пользователей и гости: 0


Вы не можете начинать темы
Вы не можете отвечать на сообщения
Вы не можете редактировать свои сообщения
Вы не можете удалять свои сообщения
Вы не можете добавлять вложения

Перейти:  
cron