Начать новую тему Ответить на тему
Статистика раздачи
Размер: 183.54 МБ | Добавлен: 26 мар 2019, 20:49 | Скачали: 0
Сидеров: 0  [0 байт/сек]    Личеров: 0  [0 байт/сек]
Пред. тема | След. тема 

Автор
Сообщение

СообщениеДобавлено: 26 мар 2019, 20:49 

Ответить с цитатой 

Valerie Carter - Just A Stone's Throw Away
Жанр: Folk, Pop-Rock
Носитель: CD
Год издания: 1977, 1994 Remastered
Издатель (лейбл): Legacy
Номер по каталогу: CK 57688
Страна исполнителя (группы): САСШ
Аудиокодек: FLAC (*.flac)
Тип рипа: image+.cue
Битрейт аудио: lossless
Продолжительность: 00:33:25
Источник: Israbox
Наличие сканов в содержимом раздачи: да
Треклист:
1 Ooh Child 2:56
2 Ringing Doorbells In The Rain 2:40
3 Heartache 2:55
4 Face Of Appalachia 4:15
5 So, So, Happy 3:42
6 A Stone's Throw Away 3:59
7 Cowboy Angel 3:51
8 City Lights 3:18
9 Back To Blue Some More 5:49
Код:
Exact Audio Copy V1.3 from 2. September 2016
EAC extraction logfile from 26. October 2016, 21:22
Valerie Carter / Just A Stone's Throw Away
Used drive  : SONY    DVD RW DRU-500A   Adapter: 1  ID: 1
Read mode               : Secure
Utilize accurate stream : Yes
Defeat audio cache      : Yes
Make use of C2 pointers : No
Read offset correction                      : 120
Overread into Lead-In and Lead-Out          : No
Fill up missing offset samples with silence : Yes
Delete leading and trailing silent blocks   : No
Null samples used in CRC calculations       : Yes
Used interface                              : Native Win32 interface for Win NT & 2000
Used output format : Internal WAV Routines
Sample format      : 44.100 Hz; 16 Bit; Stereo
TOC of the extracted CD
     Track |   Start  |  Length  | Start sector | End sector
    ---------------------------------------------------------
        1  |  0:00.00 |  2:57.02 |         0    |    13276
        2  |  2:57.02 |  2:39.35 |     13277    |    25236
        3  |  5:36.37 |  2:56.45 |     25237    |    38481
        4  |  8:33.07 |  4:14.60 |     38482    |    57591
        5  | 12:47.67 |  3:42.25 |     57592    |    74266
        6  | 16:30.17 |  3:58.63 |     74267    |    92179
        7  | 20:29.05 |  3:48.72 |     92180    |   109351
        8  | 24:18.02 |  3:17.08 |    109352    |   124134
        9  | 27:35.10 |  5:50.52 |    124135    |   150436
Range status and errors
Selected range
     Filename C:\NoNoLeT\Valerie Carter -1977 - Just A Stone's Throw Away (Columbia CK 57688, 1994 US)\Valerie Carter - Just A Stone's Throw Away.wav
     Peak level 100.0 %
     Extraction speed 5.2 X
     Range quality 100.0 %
     Test CRC C9A4E0FF
     Copy CRC C9A4E0FF
     Copy OK
No errors occurred
AccurateRip summary
Track  1  accurately ripped (confidence 2)  [51B26F84]  (AR v2)
Track  2  accurately ripped (confidence 2)  [EFF34C96]  (AR v2)
Track  3  accurately ripped (confidence 2)  [CB83FF47]  (AR v2)
Track  4  accurately ripped (confidence 2)  [C1D57E0A]  (AR v2)
Track  5  accurately ripped (confidence 2)  [070478EC]  (AR v2)
Track  6  accurately ripped (confidence 2)  [73C5A72B]  (AR v2)
Track  7  accurately ripped (confidence 2)  [8430ED8F]  (AR v2)
Track  8  accurately ripped (confidence 2)  [7B9649B7]  (AR v2)
Track  9  accurately ripped (confidence 2)  [E89B5A6D]  (AR v2)
All tracks accurately ripped
End of status report
---- CUETools DB Plugin V2.1.6
[CTDB TOCID: nC0iwxkDckk_KZkEPLtb5eqEPSw-] found
Submit result: nC0iwxkDckk_KZkEPLtb5eqEPSw- has been confirmed
Track | CTDB Status
  1   | (4/4) Accurately ripped
  2   | (4/4) Accurately ripped
  3   | (4/4) Accurately ripped
  4   | (4/4) Accurately ripped
  5   | (4/4) Accurately ripped
  6   | (4/4) Accurately ripped
  7   | (4/4) Accurately ripped
  8   | (4/4) Accurately ripped
  9   | (4/4) Accurately ripped
==== Log checksum 9CA61BF1D07DA8ACECABC6314E87FFCAF9A5D6F6C1216ECE54E023ACFB00769B ====
Код:
REM GENRE Vocal
REM DATE 1977
REM DISCID 7B07D509
REM COMMENT "ExactAudioCopy v1.3"
PERFORMER "Valerie Carter"
TITLE "Just A Stone's Throw Away"
REM COMPOSER ""
FILE "Valerie Carter - Just A Stone's Throw Away.flac" WAVE
  TRACK 01 AUDIO
    TITLE "Ooh Child"
    PERFORMER "Valerie Carter"
    REM COMPOSER ""
    INDEX 01 00:00:00
  TRACK 02 AUDIO
    TITLE "Ringing Doorbells In The Rain"
    PERFORMER "Valerie Carter"
    REM COMPOSER ""
    INDEX 01 02:57:02
  TRACK 03 AUDIO
    TITLE "Heartache"
    PERFORMER "Valerie Carter"
    REM COMPOSER ""
    INDEX 01 05:36:37
  TRACK 04 AUDIO
    TITLE "Face of Appalachia"
    PERFORMER "Valerie Carter"
    REM COMPOSER ""
    INDEX 01 08:33:07
  TRACK 05 AUDIO
    TITLE "So, So, Happy"
    PERFORMER "Valerie Carter"
    REM COMPOSER ""
    INDEX 01 12:47:67
  TRACK 06 AUDIO
    TITLE "A Stones's Throw Away"
    PERFORMER "Valerie Carter"
    REM COMPOSER ""
    INDEX 01 16:30:17
  TRACK 07 AUDIO
    TITLE "Cowboy Angel"
    PERFORMER "Valerie Carter"
    REM COMPOSER ""
    INDEX 01 20:29:05
  TRACK 08 AUDIO
    TITLE "City Lights"
    PERFORMER "Valerie Carter"
    REM COMPOSER ""
    INDEX 01 24:18:02
  TRACK 09 AUDIO
    TITLE "Back To Blue Some More"
    PERFORMER "Valerie Carter"
    REM COMPOSER ""
    INDEX 01 27:35:10
Правила, инструкции, FAQ!!!
Торрент  Добавлен [26 мар 2019, 20:49] Скачать торрент Магнет ссылка
Скачать торрент
[ Размер 15.28 КБ / Просмотров 1 ]

Статус
Проверен 
 
Размер  183.54 МБ
Приватный: Нет (DHT включён)
.torrent скачан  0
 


     Отправить личное сообщение
   
Страница 1 из 1
Показать сообщения за:  Поле сортировки  
Начать новую тему Ответить на тему


Сейчас этот форум просматривают: нет зарегистрированных пользователей и гости: 0


Вы не можете начинать темы
Вы не можете отвечать на сообщения
Вы не можете редактировать свои сообщения
Вы не можете удалять свои сообщения
Вы не можете добавлять вложения

Перейти:  
cron