Начать новую тему Ответить на тему
Статистика раздачи
Размер: 484.21 МБ | Добавлен: 04 янв 2018, 13:05 | Скачали: 2
Сидеров: 2  [0 байт/сек]    Личеров: 0  [0 байт/сек]
Пред. тема | След. тема 

Автор
Сообщение

СообщениеДобавлено: 04 янв 2018, 13:05 

Ответить с цитатой 

VA - FИЛЬТР 02 (2002)

Жанр: Rock
Издание: Real Records RR-193CD
Продолжительность: 01:09:53

Кодек: FLAC
Битрейт: Lossless
Тип рипа: tracks + .cue

Треклист:
01 Zемфира - Мачо
02 Мумий Тролль - Морская капуста
03 Total - Прости
04 Найк Борзов - Одна она
05 Ночные снайперы - Розы
06 Мультфильмы - Девушка
07 Седьмой прохожий - Сделай громче
08 Дети Picasso - Как Будда
09 Смысловые галлюцинации - Разум когда-нибудь победит
10 Brainstorm - Maybe
11 Глюкоза - Shugar
12 Суп харчо - Мишень
13 Butch - Мания
14 Ундервуд - Все, что надо
15 Чичерина - Пожарные
16 Ч.Ч. - Кирпичная дорога
17 Пилот - Осеннее пора
18 Палата люкс - Дура
19 Леприконсы - Море
20 Калинов мост - Камчатка
Код:
Exact Audio Copy V1.3 from 2. September 2016

Отчёт EAC об извлечении, выполненном 8. сентября 2017, 0:50

Various Artists / FИЛЬТР 02

Дисковод: Optiarc DVD RW AD-7560S   Adapter: 1  ID: 3

Режим чтения                 : Достоверность
Использование точного потока : Да
Отключение кэша аудио        : Да
Использование указателей C2  : Нет

Коррекция смещения при чтении                     : 6
Способность читать области Lead-in и Lead-out     : Нет
Заполнение пропущенных сэмплов тишиной            : Да
Удаление блоков с тишиной в начале и конце        : Нет
При вычислениях CRC использовались нулевые сэмплы : Да
Интерфейс                                         : Встроенный Win32-интерфейс для Win NT/2000

Выходной формат : Внутренние WAV-операции
Формат сэмплов  : 44.100 Гц; 16 бит; стерео

TOC извлечённого CD

     Трек |   Старт  | Длительность | Начальный сектор | Конечный сектор
    ---------------------------------------------------------------------
       1  |  0:00.00 |    4:21.03   |           0      |      19577
       2  |  4:21.03 |    2:29.61   |       19578      |      30813
       3  |  6:50.64 |    4:13.18   |       30814      |      49806
       4  | 11:04.07 |    4:39.41   |       49807      |      70772
       5  | 15:43.48 |    3:03.66   |       70773      |      84563
       6  | 18:47.39 |    3:03.12   |       84564      |      98300
       7  | 21:50.51 |    3:13.38   |       98301      |     112813
       8  | 25:04.14 |    3:59.25   |      112814      |     130763
       9  | 29:03.39 |    3:30.37   |      130764      |     146550
      10  | 32:34.01 |    4:12.47   |      146551      |     165497
      11  | 36:46.48 |    3:43.55   |      165498      |     182277
      12  | 40:30.28 |    3:26.64   |      182278      |     197791
      13  | 43:57.17 |    3:58.66   |      197792      |     215707
      14  | 47:56.08 |    2:50.02   |      215708      |     228459
      15  | 50:46.10 |    3:07.70   |      228460      |     242554
      16  | 53:54.05 |    2:55.37   |      242555      |     255716
      17  | 56:49.42 |    1:59.71   |      255717      |     264712
      18  | 58:49.38 |    2:42.46   |      264713      |     276908
      19  | 61:32.09 |    3:07.09   |      276909      |     290942
      20  | 64:39.18 |    5:14.42   |      290943      |     314534

Характеристики диапазона извлечения и сообщения об ошибках

Выбранный диапазон

     Имя файла D:\Music\Various Artists - FИЛЬТР 02.wav

     Пиковый уровень 100.0 %
     Скорость извлечения 2.0 X
     Качество диапазона 99.9 %
     CRC копии 6F1DE09A
     Копирование... OK

Ошибок не произошло

AccurateRip: сводка

Трек  1  : извлечено точно (доверие 3)  [C094CA71]  (AR v2)
Трек  2  : извлечено точно (доверие 3)  [159E7C27]  (AR v2)
Трек  3  : извлечено точно (доверие 3)  [BF5C079B]  (AR v2)
Трек  4  : извлечено точно (доверие 3)  [5E49BF57]  (AR v2)
Трек  5  : извлечено точно (доверие 3)  [2DFF15B0]  (AR v2)
Трек  6  : извлечено точно (доверие 3)  [3009DD6D]  (AR v2)
Трек  7  : извлечено точно (доверие 3)  [8210B054]  (AR v2)
Трек  8  : извлечено точно (доверие 3)  [35E942F7]  (AR v2)
Трек  9  : извлечено точно (доверие 3)  [4304D21F]  (AR v2)
Трек 10  : извлечено точно (доверие 3)  [F689EBBA]  (AR v2)
Трек 11  : извлечено точно (доверие 3)  [10130B52]  (AR v2)
Трек 12  : извлечено точно (доверие 3)  [E540FB10]  (AR v2)
Трек 13  : извлечено точно (доверие 3)  [7BB2BA8C]  (AR v2)
Трек 14  : извлечено точно (доверие 3)  [07A7241D]  (AR v2)
Трек 15  : извлечено точно (доверие 3)  [3AE64949]  (AR v2)
Трек 16  : извлечено точно (доверие 3)  [24D702F6]  (AR v2)
Трек 17  : извлечено точно (доверие 3)  [A9E1F833]  (AR v2)
Трек 18  : извлечено точно (доверие 3)  [8D6F44C2]  (AR v2)
Трек 19  : извлечено точно (доверие 3)  [B8377641]  (AR v2)
Трек 20  : извлечено точно (доверие 3)  [41C9AF75]  (AR v2)

Все треки извлечены точно

Конец отчёта

---- CUETools DB Plugin V2.1.6

[CTDB TOCID: lduk6n2JxXcol9.nWJcIl_AzVkM-] found
Submit result: already submitted
Track | CTDB Status
  1   | (4/4) Accurately ripped
  2   | (4/4) Accurately ripped
  3   | (4/4) Accurately ripped
  4   | (4/4) Accurately ripped
  5   | (4/4) Accurately ripped
  6   | (4/4) Accurately ripped
  7   | (4/4) Accurately ripped
  8   | (4/4) Accurately ripped
  9   | (4/4) Accurately ripped
 10   | (4/4) Accurately ripped
 11   | (3/4) Accurately ripped, or (1/4) differs in 140 samples @03:05:56-03:05:57,03:29:35-03:29:36
 12   | (4/4) Accurately ripped
 13   | (4/4) Accurately ripped
 14   | (4/4) Accurately ripped
 15   | (4/4) Accurately ripped
 16   | (4/4) Accurately ripped
 17   | (4/4) Accurately ripped
 18   | (4/4) Accurately ripped
 19   | (4/4) Accurately ripped
 20   | (4/4) Accurately ripped

==== Контрольная сумма отчёта 81E9F40650A17B7AA5C0CE1A8F53E4B5E2359FC4763E0D6CC1F22472F06EFACC ====
Код:
REM GENRE "Rock"
REM DATE 2002
REM DISCID 1F106114
REM COMMENT "ExactAudioCopy v1.3"
PERFORMER "Various Artists"
TITLE "FИЛЬТР 02"
REM COMPOSER ""
FILE "01. Zемфира - Мачо.flac" WAVE
  TRACK 01 AUDIO
    TITLE "Zемфира - Мачо"
    PERFORMER "Various Artists"
    REM COMPOSER ""
    INDEX 01 00:00:00
FILE "02. Мумий Тролль - Морская капуста.flac" WAVE
  TRACK 02 AUDIO
    TITLE "Мумий Тролль - Морская капуста"
    PERFORMER "Various Artists"
    REM COMPOSER ""
    INDEX 01 00:00:00
FILE "03. Total - Прости.flac" WAVE
  TRACK 03 AUDIO
    TITLE "Total - Прости"
    PERFORMER "Various Artists"
    REM COMPOSER ""
    INDEX 01 00:00:00
FILE "04. Найк Борзов - Одна она.flac" WAVE
  TRACK 04 AUDIO
    TITLE "Найк Борзов - Одна она"
    PERFORMER "Various Artists"
    REM COMPOSER ""
    INDEX 01 00:00:00
FILE "05. Ночные снайперы - Розы.flac" WAVE
  TRACK 05 AUDIO
    TITLE "Ночные снайперы - Розы"
    PERFORMER "Various Artists"
    REM COMPOSER ""
    INDEX 01 00:00:00
FILE "06. Мультфильмы - Девушка.flac" WAVE
  TRACK 06 AUDIO
    TITLE "Мультфильмы - Девушка"
    PERFORMER "Various Artists"
    REM COMPOSER ""
    INDEX 01 00:00:00
FILE "07. Седьмой прохожий - Сделай громче.flac" WAVE
  TRACK 07 AUDIO
    TITLE "Седьмой прохожий - Сделай громче"
    PERFORMER "Various Artists"
    REM COMPOSER ""
    INDEX 01 00:00:00
FILE "08. Дети Picasso - Как Будда.flac" WAVE
  TRACK 08 AUDIO
    TITLE "Дети Picasso - Как Будда"
    PERFORMER "Various Artists"
    REM COMPOSER ""
    INDEX 01 00:00:00
FILE "09. Смысловые галлюцинации - Разум когда-нибудь победит.flac" WAVE
  TRACK 09 AUDIO
    TITLE "Смысловые галлюцинации - Разум когда-нибудь победит"
    PERFORMER "Various Artists"
    REM COMPOSER ""
    INDEX 01 00:00:00
FILE "10. Brainstorm - Maybe.flac" WAVE
  TRACK 10 AUDIO
    TITLE "Brainstorm - Maybe"
    PERFORMER "Various Artists"
    REM COMPOSER ""
    INDEX 01 00:00:00
FILE "11. Глюкоза - Shugar.flac" WAVE
  TRACK 11 AUDIO
    TITLE "Глюкоза - Shugar"
    PERFORMER "Various Artists"
    REM COMPOSER ""
    INDEX 01 00:00:00
FILE "12. Суп харчо - Мишень.flac" WAVE
  TRACK 12 AUDIO
    TITLE "Суп харчо - Мишень"
    PERFORMER "Various Artists"
    REM COMPOSER ""
    INDEX 01 00:00:00
FILE "13. Butch - Мания.flac" WAVE
  TRACK 13 AUDIO
    TITLE "Butch - Мания"
    PERFORMER "Various Artists"
    REM COMPOSER ""
    INDEX 01 00:00:00
FILE "14. Ундервуд - Все, что надо.flac" WAVE
  TRACK 14 AUDIO
    TITLE "Ундервуд - Все, что надо"
    PERFORMER "Various Artists"
    REM COMPOSER ""
    INDEX 01 00:00:00
FILE "15. Чичерина - Пожарные.flac" WAVE
  TRACK 15 AUDIO
    TITLE "Чичерина - Пожарные"
    PERFORMER "Various Artists"
    REM COMPOSER ""
    INDEX 01 00:00:00
FILE "16. Ч.Ч. - Кирпичная дорога.flac" WAVE
  TRACK 16 AUDIO
    TITLE "Ч.Ч. - Кирпичная дорога"
    PERFORMER "Various Artists"
    REM COMPOSER ""
    INDEX 01 00:00:00
FILE "17. Пилот - Осеннее пора.flac" WAVE
  TRACK 17 AUDIO
    TITLE "Пилот - Осеннее пора"
    PERFORMER "Various Artists"
    REM COMPOSER ""
    INDEX 01 00:00:00
FILE "18. Палата люкс - Дура.flac" WAVE
  TRACK 18 AUDIO
    TITLE "Палата люкс - Дура"
    PERFORMER "Various Artists"
    REM COMPOSER ""
    INDEX 01 00:00:00
FILE "19. Леприконсы - Море.flac" WAVE
  TRACK 19 AUDIO
    TITLE "Леприконсы - Море"
    PERFORMER "Various Artists"
    REM COMPOSER ""
    INDEX 01 00:00:00
FILE "20. Калинов мост - Камчатка.flac" WAVE
  TRACK 20 AUDIO
    TITLE "Калинов мост - Камчатка"
    PERFORMER "Various Artists"
    REM COMPOSER ""
    INDEX 01 00:00:00
Код:
-----------------------

DON'T MODIFY THIS FILE

-----------------------

PERFORMER: auCDtect Task Manager, ver. 1.6.0 RC1 build 1.6.0.1
Copyright (c) 2008-2010 y-soft. All rights reserved
[url=http://y-soft.org]http://y-soft.org[/url]

ANALYZER: auCDtect: CD records authenticity detector, version 0.8.2
Copyright (c) 2004 Oleg Berngardt. All rights reserved.
Copyright (c) 2004 Alexander Djourik. All rights reserved.

FILE: 20. Калинов мост - Камчатка.flac
  Size: 37222397 Hash: 7132B9BF5B5406868CFB546C7330B685 Accuracy: -m0
  Conclusion: CDDA 100%
  Signature: 471C8707A301EFC8F11842A2405A316BF2D7E7D3
FILE: 19. Леприконсы - Море.flac
  Size: 23293028 Hash: 83250ED8127D8140189F68C753570BB2 Accuracy: -m0
  Conclusion: CDDA 100%
  Signature: EE4D06C41B148F172E68311A76059C2A0343E5C2
FILE: 18. Палата люкс - Дура.flac
  Size: 20296081 Hash: BD822F3BCF54AA1419B2F8EB43F74416 Accuracy: -m0
  Conclusion: CDDA 99%
  Signature: A6582082C6C2AC9D405861DC733AB48AE5B71247
FILE: 17. Пилот - Осеннее пора.flac
  Size: 15394273 Hash: B9A21B0FD87CB1AF7347909626733C7B Accuracy: -m0
  Conclusion: CDDA 100%
  Signature: FD7923D149A2373A2BDE4B72AE7728C34DFB6F77
FILE: 16. Ч.Ч. - Кирпичная дорога.flac
  Size: 22180457 Hash: 4C8485F371F5ADAC2815B1C32C677A81 Accuracy: -m0
  Conclusion: CDDA 100%
  Signature: 23239D2851C0A8996A010A5B3BB5BD7E38DAF4C3
FILE: 15. Чичерина - Пожарные.flac
  Size: 22474508 Hash: 7F7059D4178D7DDD7C6CCF5B5D4BE771 Accuracy: -m0
  Conclusion: CDDA 100%
  Signature: E5B0221B053464CAE74D0DAF257768BC9699C87A
FILE: 14. Ундервуд - Все, что надо.flac
  Size: 20910154 Hash: 3C5B9B83BBFF04A079EDA7B1CEE4BDF5 Accuracy: -m0
  Conclusion: CDDA 100%
  Signature: 1EF7CA839B4A6F382856035723B2E04F842C18A9
FILE: 13. Butch - Мания.flac
  Size: 30417571 Hash: F8388F7E644540BDCDD010BBD5D9937C Accuracy: -m0
  Conclusion: CDDA 100%
  Signature: 1CFAB42ED3A3BDBC878EF4E7915D5140CE541460
FILE: 12. Суп харчо - Мишень.flac
  Size: 24479476 Hash: 2FDBF8EA7E3122EB031F78007E91DF7A Accuracy: -m0
  Conclusion: CDDA 100%
  Signature: 571D84E0DE25A45B5B1DA8D3FB47235507716E3A
FILE: 11. Глюкоза - Shugar.flac
  Size: 24014701 Hash: 8E40ED813073AA253BB69CFD08C92D12 Accuracy: -m0
  Conclusion: CDDA 100%
  Signature: C21F553CD9CDA4A31F642DABAEA1562861D021DF
FILE: 10. Brainstorm - Maybe.flac
  Size: 29618749 Hash: AD9B1B1B1912611E1289426B0F8842B6 Accuracy: -m0
  Conclusion: CDDA 100%
  Signature: 52082DBC5FE0EA316043650A05A078D686167ECD
FILE: 09. Смысловые галлюцинации - Разум когда-нибудь победит.flac
  Size: 25746568 Hash: 1D16523B2D9AAF274A0F6FACAB7DF49F Accuracy: -m0
  Conclusion: CDDA 100%
  Signature: 024D410F566D5E98D8190A53E8B93F004F2037B8
FILE: 08. Дети Picasso - Как Будда.flac
  Size: 29185414 Hash: 9783327FA9A7E188E2D515A9FF7877B2 Accuracy: -m0
  Conclusion: CDDA 100%
  Signature: 7012B178DA4A785DCD59643522E98F69583ACD8E
FILE: 07. Седьмой прохожий - Сделай громче.flac
  Size: 25546174 Hash: 86315ADF2DA8D8EA76541307B35C2180 Accuracy: -m0
  Conclusion: CDDA 99%
  Signature: 8215E5F7B149CAACABB6D403E834DCD74CBD0370
FILE: 06. Мультфильмы - Девушка.flac
  Size: 24370555 Hash: 1921453DB855DAA8F592BE4B94F1CA70 Accuracy: -m0
  Conclusion: CDDA 100%
  Signature: 2A53BB71EE6A9B332C4764EEE282F58C07C4B60B
FILE: 05. Ночные снайперы - Розы.flac
  Size: 22567021 Hash: FF7789C6E8D5F313833DBF0F6A5F97E1 Accuracy: -m0
  Conclusion: CDDA 100%
  Signature: F1A3AD1948433BB604CCE94774F5ABE20E87224E
FILE: 04. Найк Борзов - Одна она.flac
  Size: 32935491 Hash: A7555BE23CB0D974F98A6CA66F3F4EFC Accuracy: -m0
  Conclusion: CDDA 100%
  Signature: FCE9243C9B2B612C0F648E4883A48D93735DB03F
FILE: 03. Total - Прости.flac
  Size: 29302847 Hash: 99F535C292F0A0ACEE22727D461B23BE Accuracy: -m0
  Conclusion: CDDA 100%
  Signature: 0865DCB52C81C6966A272F319C303AD0D6DD1BB2
FILE: 02. Мумий Тролль - Морская капуста.flac
  Size: 17161384 Hash: 164C953E794A7B240B12E7AC3B79CBBE Accuracy: -m0
  Conclusion: CDDA 100%
  Signature: E823C85050AEED2275BC5D13834DC4A659D0C2E8
FILE: 01. Zемфира - Мачо.flac
  Size: 28517702 Hash: FDB2FDEA53C022F8DED3F91B443A0E71 Accuracy: -m0
  Conclusion: CDDA 100%
  Signature: 03F9CA535B70FD8F8D67DE568143314C00FFA73A

Правила, инструкции, FAQ!!!
Торрент  Добавлен [04 янв 2018, 13:05] Скачать торрент Магнет ссылка
Скачать торрент
[ Размер 21.67 КБ / Просмотров 75 ]

Статус
Проверен 
 
Размер  484.21 МБ
Приватный: Нет (DHT включён)
.torrent скачан  2
 


     Отправить личное сообщение
   

СообщениеДобавлено: 07 апр 2021, 12:50 

Ответить с цитатой 

Зарегистрированные пользователи
Зарегистрированные пользователи

Стаж: 26 дней
Раздал: 0 байт
Скачал: 0 байт
Ратио: Inf.
Торренты: 0
Йоу! Ребят, кто-нить встаньте на раздачу. пожалуйста! Очень хочется докачать!


Профиль     Отправить личное сообщение
   

СообщениеДобавлено: 07 апр 2021, 19:37 

Ответить с цитатой 

Администратор
Администратор

Стаж: 8 лет 6 месяцев 1 день
Раздал: 296.23 ГБ
Скачал: 158.38 ГБ
Ратио: 1.870
Торренты: 13
Раздача не сидируется уже более года, так что в ближайшее время будет удалена

_________________
Не скачивается раздача? напишите об этом в теме!


Профиль     Отправить личное сообщение
   
Страница 1 из 1
Показать сообщения за:  Поле сортировки  
Начать новую тему Ответить на тему


Сейчас этот форум просматривают: нет зарегистрированных пользователей и гости: 0


Вы не можете начинать темы
Вы не можете отвечать на сообщения
Вы не можете редактировать свои сообщения
Вы не можете удалять свои сообщения
Вы не можете добавлять вложения

Перейти:  
cron