Начать новую тему Ответить на тему
Статистика раздачи
Размер: 363.9 МБ | Добавлен: 16 дек 2020, 18:53 | Скачали: 0
Сидеров: 2  [0 байт/сек]    Личеров: 1  [0 байт/сек]
Пред. тема | След. тема 

Автор
Сообщение

СообщениеДобавлено: 16 дек 2020, 18:53 

Ответить с цитатой 

Synapscape / Synapscape
#777
Жанр: Experimental, Industrial, Rhythmic Noise
Носитель: WEB
Страна-производитель диска (релиза): Germany
Год издания: 1995
Издатель (лейбл): Ant-Zen
Номер по каталогу: act 27
Страна исполнителя (группы): Germany
Аудиокодек: FLAC (*.flac)
Тип рипа: tracks+.cue
Продолжительность: 1:06:04
Источник: SoulSeek
Наличие сканов в содержимом раздачи: нет
Треклист:
01. Dream (Subliminal)
02. Media Minded
03. Fiendish
04. My Race
05. Set Smiled
06. No Fright
07. Inner Strategy
08. Schutz
09. My Turn
10. Situation Two
11. Drastic Significance
12. Oblivion
Код:
AUDIOCHECKER v2.0 beta (build 457) - by Dester - opdester@freemail.hu
~~~~~~~~~~~~~~~~~~~~~~~~~~~~~~~~~~
-=== DO NOT EDIT THIS FILE! ===-
Path: ...\Synapscape - Synapscape [1995]
01 -=- 01. Dream (Subliminal).flac -=- MPEG (100%)
02 -=- 02. Media Minded.flac -=- MPEG (100%)
03 -=- 03. Fiendish.flac -=- CDDA (49%)
04 -=- 04. My Race.flac -=- CDDA (100%)
05 -=- 05. Set Smiled.flac -=- MPEG (100%)
06 -=- 06. No Fright.flac -=- MPEG (93%)
07 -=- 07. Inner Strategy.flac -=- CDDA (43%)
08 -=- 08. Schutz.flac -=- CDDA (49%)
09 -=- 09. My Turn.flac -=- CDDA (100%)
10 -=- 10. Situation Two.flac -=- CDDA (100%)
11 -=- 11. Drastic Significance.flac -=- CDDA (94%)
12 -=- 12. Oblivion.flac -=- MPEG (93%)
Summary 45,75% CDDA
92157108

Код:
foobar2000 1.6.2 / Замер динамического диапазона (DR) 1.1.1
Дата отчёта:  2020-12-14 23:31:11
--------------------------------------------------------------------------------
Анализ:   Synapscape / Synapscape
--------------------------------------------------------------------------------
DR         Пики         RMS           Продолжительность трека
--------------------------------------------------------------------------------
DR8       -0.17 дБ    -9.64 дБ      6:52 01-Dream (Subliminal)
DR9       -0.18 дБ   -10.39 дБ      4:18 02-Media Minded
DR12      -0.17 дБ   -13.77 дБ      5:21 03-Fiendish
DR9       -0.17 дБ    -9.98 дБ      8:02 04-My Race
DR10      -0.18 дБ   -11.46 дБ      3:35 05-Set Smiled
DR10      -0.17 дБ   -10.60 дБ      4:43 06-No Fright
DR7       -0.17 дБ    -9.32 дБ      4:49 07-Inner Strategy
DR7       -0.17 дБ    -9.02 дБ      5:03 08-Schutz
DR8       -0.17 дБ    -9.50 дБ      7:05 09-My Turn
DR8       -0.17 дБ   -11.25 дБ      3:38 10-Situation Two
DR8       -0.17 дБ   -10.22 дБ      4:17 11-Drastic Significance
DR6       -0.17 дБ    -7.18 дБ      8:20 12-Oblivion
--------------------------------------------------------------------------------
Количество треков: 12
Реальные значения DR: DR9
Частота:   44100 Гц
Каналов:   2
Разрядность:   16
Битрейт:   518 кбит/с
Кодек:   FLAC
================================================================================





All tracks were written, performed and recorded between June 1994 and April 1995 at Sleeping Box/hF and Pillenbruch [...].
Digital mastering at A.M.S. Studios, Bielefeld [...].
Правила, инструкции, FAQ!!!
Торрент  Добавлен [16 дек 2020, 18:53] Скачать торрент Магнет ссылка
Скачать торрент
[ Размер 15.36 КБ / Просмотров 11 ]

Статус
Проверен 
 
Размер  363.9 МБ
Приватный: Нет (DHT включён)
.torrent скачан  0
 


     Отправить личное сообщение
   
Страница 1 из 1
Показать сообщения за:  Поле сортировки  
Начать новую тему Ответить на тему


Сейчас этот форум просматривают: нет зарегистрированных пользователей и гости: 0


Вы не можете начинать темы
Вы не можете отвечать на сообщения
Вы не можете редактировать свои сообщения
Вы не можете удалять свои сообщения
Вы не можете добавлять вложения

Перейти:  
cron