Начать новую тему Ответить на тему
Статистика раздачи
Размер: 266.73 МБ | Добавлен: 17 окт 2020, 10:48 | Скачали: 0
Сидеров: 1  [0 байт/сек]    Личеров: 0  [0 байт/сек]
Пред. тема | След. тема 

Автор
Сообщение

СообщениеДобавлено: 17 окт 2020, 10:48 

Ответить с цитатой 

F1(3) / The Race Must Go On
#777Жанр: Euro House, Happy Hardcore
Носитель: CDM
Страна-производитель диска (релиза): Germany
Год издания: 1995
Издатели (лейблы): JAM!, Dance Pool
Номера по каталогу: AM 662450 2, 662450 2
Аудиокодек: FLAC (*.flac)
Тип рипа: image+.cue
Продолжительность: 00:32:01.
Источник: собственный рип
Наличие сканов в содержимом раздачи: да
Треклист:
01. The Race Must Go On (Radio & Video Mix) 3:54
02. The Race Must Go On (Ravin' Racer Short Mix) 3:43
03. The Race Must Go On (Club Mix) 6:17
04. The Race Must Go On (Hymn Of The Racers) 6:19
05. The Race Must Go On (Ravin' Racer Mix) 5:05
06. The Race Must Go On (Edge Of Reality Mix) 6:35
Код:
Exact Audio Copy V1.5 from 20. February 2020
Отчёт EAC об извлечении, выполненном 4. октября 2020, 18:27
F1 / The Race Must Go On
Дисковод: ASUS    DRW-24D5MT   Adapter: 1  ID: 0
Режим чтения                 : Достоверность
Использование точного потока : Да
Отключение кэша аудио        : Да
Использование указателей C2  : Нет
Коррекция смещения при чтении                     : 6
Способность читать области Lead-in и Lead-out     : Нет
Заполнение пропущенных сэмплов тишиной            : Да
Удаление блоков с тишиной в начале и конце        : Нет
При вычислениях CRC использовались нулевые сэмплы : Да
Интерфейс                                         : Встроенный Win32-интерфейс для Win NT/2000
Выходной формат          : Пользовательский кодировщик
Выбранный битрейт        : 896 kBit/s
Качество                 : Высокий
Добавление ID3-тега      : Нет
Утилита сжатия           : C:\Program Files (x86)\Exact Audio Copy\Flac\flac.exe
Дополнительные параметры : -V -8 -T "Date=%year%" -T "Genre=%genre%" %source%
TOC извлечённого CD
     Трек |   Старт  | Длительность | Начальный сектор | Конечный сектор
    ---------------------------------------------------------------------
       1  |  0:00.00 |    3:55.25   |           0      |      17649
       2  |  3:55.25 |    3:45.00   |       17650      |      34524
       3  |  7:40.25 |    6:18.00   |       34525      |      62874
       4  | 13:58.25 |    6:20.00   |       62875      |      91374
       5  | 20:18.25 |    5:06.00   |       91375      |     114324
       6  | 25:24.25 |    6:36.20   |      114325      |     144044
Характеристики диапазона извлечения и сообщения об ошибках
Выбранный диапазон
     Имя файла D:\Program Files\Exact Audio Copy\Flac\F1 - The Race Must Go On (CDM)(1995)\F1 - The Race Must Go On.wav
     Пиковый уровень 98.9 %
     Скорость извлечения 1.5 X
     Качество диапазона 99.9 %
     CRC теста DDBD2A03
     CRC копии DDBD2A03
     Копирование... OK
Ошибок не произошло
AccurateRip: сводка
Трек  1  : извлечено точно (достоверность 3)  [8D6AFBDA]  (AR v2)
Трек  2  : извлечено точно (достоверность 3)  [8B890328]  (AR v2)
Трек  3  : извлечено точно (достоверность 3)  [F22AE5BC]  (AR v2)
Трек  4  : извлечено точно (достоверность 3)  [E516C5AE]  (AR v2)
Трек  5  : извлечено точно (достоверность 3)  [6B872D0D]  (AR v2)
Трек  6  : извлечено точно (достоверность 3)  [CD917A87]  (AR v2)
Все треки извлечены точно
Конец отчёта
---- CUETools DB Plugin V2.1.6
[CTDB TOCID: YSljPWua2.cM8q4_FJPfy_eICw4-] found
Submit result: YSljPWua2.cM8q4_FJPfy_eICw4- has been confirmed
Track | CTDB Status
  1   | (7/7) Accurately ripped
  2   | (7/7) Accurately ripped
  3   | (7/7) Accurately ripped
  4   | (7/7) Accurately ripped
  5   | (7/7) Accurately ripped
  6   | (7/7) Accurately ripped
==== Контрольная сумма отчёта 8D83008A7E5EF157C3B3FC04E0BC3503E83A16142EEF9180685937EDFF4DF1D5 ====
Код:
REM GENRE "Euro-House, Happy Hardcore"
REM DATE 1995
REM DISCID 39078006
REM COMMENT "ExactAudioCopy v1.5"
PERFORMER "F1"
TITLE "The Race Must Go On"
REM COMPOSER ""
FILE "F1 - The Race Must Go On.flac" WAVE
  TRACK 01 AUDIO
    TITLE "The Race Must Go On (Radio & Video Mix)"
    PERFORMER "F1"
    REM COMPOSER ""
    INDEX 01 00:00:00
  TRACK 02 AUDIO
    TITLE "The Race Must Go On (Ravin' Racer Short Mix)"
    PERFORMER "F1"
    REM COMPOSER ""
    INDEX 00 03:54:25
    INDEX 01 03:55:25
  TRACK 03 AUDIO
    TITLE "The Race Must Go On (Club Mix)"
    PERFORMER "F1"
    REM COMPOSER ""
    INDEX 00 07:39:10
    INDEX 01 07:40:25
  TRACK 04 AUDIO
    TITLE "The Race Must Go On (Hymn Of The Racers)"
    PERFORMER "F1"
    REM COMPOSER ""
    INDEX 00 13:57:15
    INDEX 01 13:58:25
  TRACK 05 AUDIO
    TITLE "The Race Must Go On (Ravin' Racer Mix)"
    PERFORMER "F1"
    REM COMPOSER ""
    INDEX 00 20:17:15
    INDEX 01 20:18:25
  TRACK 06 AUDIO
    TITLE "The Race Must Go On (Edge Of Reality Mix)"
    PERFORMER "F1"
    REM COMPOSER ""
    INDEX 00 25:23:27
    INDEX 01 25:24:25
Правила, инструкции, FAQ!!!
Торрент  Добавлен [17 окт 2020, 10:48] Скачать торрент Магнет ссылка
Скачать торрент
[ Размер 11.34 КБ / Просмотров 1 ]

Статус
Проверен 
 
Размер  266.73 МБ
Приватный: Нет (DHT включён)
.torrent скачан  0
 


     Отправить личное сообщение
   
Страница 1 из 1
Показать сообщения за:  Поле сортировки  
Начать новую тему Ответить на тему


Сейчас этот форум просматривают: нет зарегистрированных пользователей и гости: 0


Вы не можете начинать темы
Вы не можете отвечать на сообщения
Вы не можете редактировать свои сообщения
Вы не можете удалять свои сообщения
Вы не можете добавлять вложения

Перейти:  
cron