Начать новую тему Ответить на тему
Статистика раздачи
Размер: 490.69 МБ | Добавлен: 01 авг 2020, 18:32 | Скачали: 0
Сидеров: 0  [0 байт/сек]    Личеров: 0  [0 байт/сек]
Пред. тема | След. тема 

Автор
Сообщение

СообщениеДобавлено: 01 авг 2020, 18:32 

Ответить с цитатой 

Spatial Vox - Cause Of Shining In Your Eyes (The 1'st Album)

Жанр: Euro-Disco
Носитель: STREAM
Год издания: 2020
Страна исполнителя (группы): Italy
Аудиокодек: FLAC (*.flac)
Тип рипа: tracks
Продолжительность: 01:06:48
Источник: deezer
Наличие сканов в содержимом раздачи: нет
Треклист:
01. Cause of shining in your eyes (Album Version)
02. Right To My Self (Album Version)
03. Call My Name (Album Version)
04. Love Will Never Die (Album Version)
05. No Flying (Album Version)
06. Shaila (Cat Woman) (Album Version)
07. Pick Up The Phone (Album Version)
08. Stop To Look Alike (Album Version)
09. Secret Room (Album Version)
10. Bye Bye Summer (Album Version)
11. Pick Up The Phone (Long Version)
12. Shaila (Cat Woman) (Long Version)
13. Right To My Self (Long Version)
14. No Flying (Alternative Version)
15. Pick Up The Phone (Special Version)
16. Bye Bye Summer (Capella Version)
Код:
foobar2000 1.1.13 / Замер динамического диапазона (DR) 1.1.1
Дата отчёта:  2020-08-01 16:33:22
--------------------------------------------------------------------------------
Анализ:   Spatial Vox / Cause Of Shining In Your Eyes (The 1'st Album)
--------------------------------------------------------------------------------
DR         Пики         RMS           Продолжительность трека
--------------------------------------------------------------------------------
DR6       -0.10 дБ    -7.49 дБ      4:09 ?-Cause of shining in your eyes (Album Version)
DR8       -0.10 дБ    -8.91 дБ      3:17 ?-Right To My Self (Album Version)
DR7       -0.10 дБ    -7.80 дБ      3:38 ?-Call My Name (Album Version)
DR6       -0.10 дБ    -6.80 дБ      4:06 ?-Love Will Never Die (Album Version)
DR6       -0.10 дБ    -8.25 дБ      4:15 ?-No Flying (Album Version)
DR6       -0.10 дБ    -7.32 дБ      3:50 ?-Shaila (Cat Woman) (Album Version)
DR6       -0.10 дБ    -7.63 дБ      4:36 ?-Pick Up The Phone (Album Version)
DR6       -0.10 дБ    -7.09 дБ      4:02 ?-Stop To Look Alike (Album Version)
DR7       -0.10 дБ    -7.67 дБ      4:52 ?-Secret Room (Album Version)
DR7       -0.10 дБ    -7.86 дБ      4:19 ?-Bye Bye Summer (Album Version)
DR6       -0.10 дБ    -8.07 дБ      5:43 ?-Pick Up The Phone (Long Version)
DR6       -0.10 дБ    -7.94 дБ      5:42 ?-Shaila (Cat Woman) (Long Version)
DR6       -0.10 дБ    -7.66 дБ      5:32 ?-Right To My Self (Long Version)
DR7       -0.10 дБ    -9.48 дБ      2:50 ?-No Flying (Alternative Version)
DR7       -0.10 дБ    -7.96 дБ      4:56 ?-Pick Up The Phone (Special Version)
DR8       -0.10 дБ    -9.89 дБ      1:00 ?-Bye Bye Summer (Capella Version)
--------------------------------------------------------------------------------
Количество треков: 16
Реальные значения DR: DR7
Частота:   44100 Гц
Каналов:   2
Разрядность:   16
Битрейт:   958 кбит/с
Кодек:   FLAC
================================================================================
Код:
AUDIOCHECKER v2.0 beta (build 457) - by Dester - opdester@freemail.hu
~~~~~~~~~~~~~~~~~~~~~~~~~~~~~~~~~~
-=== НЕ РЕДАКТИРУЙТЕ ЭТОТ ФАЙЛ! ===-
Путь: ...\Spatial Vox - Cause Of Shining In Your Eyes (The 1'st Album) (2020) [Lossless]
01 -=- 01. Cause of shining in your eyes (Album Version).flac -=- CDDA (100%)
02 -=- 02. Right To My Self (Album Version).flac -=- CDDA (100%)
03 -=- 03. Call My Name (Album Version).flac -=- CDDA (100%)
04 -=- 04. Love Will Never Die (Album Version).flac -=- CDDA (100%)
05 -=- 05. No Flying (Album Version).flac -=- CDDA (100%)
06 -=- 06. Shaila (Cat Woman) (Album Version).flac -=- CDDA (100%)
07 -=- 07. Pick Up The Phone (Album Version).flac -=- CDDA (100%)
08 -=- 08. Stop To Look Alike (Album Version).flac -=- CDDA (100%)
09 -=- 09. Secret Room (Album Version).flac -=- CDDA (100%)
10 -=- 10. Bye Bye Summer (Album Version).flac -=- CDDA (100%)
11 -=- 11. Pick Up The Phone (Long Version).flac -=- CDDA (100%)
12 -=- 12. Shaila (Cat Woman) (Long Version).flac -=- CDDA (100%)
13 -=- 13. Right To My Self (Long Version).flac -=- CDDA (100%)
14 -=- 14. No Flying (Alternative Version).flac -=- CDDA (100%)
15 -=- 15. Pick Up The Phone (Special Version).flac -=- CDDA (100%)
16 -=- 16. Bye Bye Summer (Capella Version).flac -=- CDDA (100%)
Сводка 100,00% CDDA
42852788
Правила, инструкции, FAQ!!!
Торрент  Добавлен [01 авг 2020, 18:32] Скачать торрент Магнет ссылка
Скачать торрент
[ Размер 20.9 КБ / Просмотров 2 ]

Статус
Проверен 
 
Размер  490.69 МБ
Приватный: Нет (DHT включён)
.torrent скачан  0
 


     Отправить личное сообщение
   
Страница 1 из 1
Показать сообщения за:  Поле сортировки  
Начать новую тему Ответить на тему


Сейчас этот форум просматривают: нет зарегистрированных пользователей и гости: 0


Вы не можете начинать темы
Вы не можете отвечать на сообщения
Вы не можете редактировать свои сообщения
Вы не можете удалять свои сообщения
Вы не можете добавлять вложения

Перейти:  
cron