Начать новую тему Ответить на тему
Статистика раздачи
Размер: 309.21 МБ | Добавлен: 26 июн 2020, 19:25 | Скачали: 0
Сидеров: 0  [0 байт/сек]    Личеров: 0  [0 байт/сек]
Пред. тема | След. тема 

Автор
Сообщение

СообщениеДобавлено: 26 июн 2020, 19:25 

Ответить с цитатой 

Kismet - Wake Up Gods
Жанр: Ethno-Industrial, Electro, Techno
Год выпуска диска: 1998
Производитель диска: US
Аудио кодек: FLAC
Тип рипа: image+.cue
Битрейт аудио: lossless
Продолжительность: 50:21
Трэклист:
01 Wake Up Gods
02 Assassination
03 Until The Next War
04 Submarine
05 Ortamoa
06 Venus In Furs
07 Polen
08 Post Communism
09 Nothing
10 Voden 2048
11 Leison
Доп. информация:
Label: Tone Casualties
Catalog#: TCCD9723
Код:
Exact Audio Copy V0.99 prebeta 4 from 23. January 2008
EAC extraction logfile from 26. April 2009, 21:12
Kismet / Wake Up Gods
Used drive  : PLEXTOR DVD-ROM PX-116A2   Adapter: 0  ID: 1
Read mode               : Secure
Utilize accurate stream : Yes
Defeat audio cache      : Yes
Make use of C2 pointers : No
Read offset correction                      : 102
Overread into Lead-In and Lead-Out          : No
Fill up missing offset samples with silence : Yes
Delete leading and trailing silent blocks   : No
Null samples used in CRC calculations       : Yes
Used interface                              : Installed external ASPI interface
Used output format              : User Defined Encoder
Selected bitrate                : 1024 kBit/s
Quality                         : High
Add ID3 tag                     : No
Command line compressor         : C:\Program Files\FLAC\flac.exe
Additional command line options : -8 -V -T "ARTIST=%a" -T "TITLE=%t" -T "ALBUM=%g" -T "DATE=%y" -T "TRACKNUMBER=%n" -T "GENRE=%m" -T "COMMENT=EAC FLAC -8" %s
TOC of the extracted CD
     Track |   Start  |  Length  | Start sector | End sector
    ---------------------------------------------------------
        1  |  0:00.00 |  4:33.65 |         0    |    20539
        2  |  4:33.65 |  4:16.50 |     20540    |    39789
        3  |  8:50.40 |  3:58.20 |     39790    |    57659
        4  | 12:48.60 |  5:09.05 |     57660    |    80839
        5  | 17:57.65 |  6:00.05 |     80840    |   107844
        6  | 23:57.70 |  4:11.45 |    107845    |   126714
        7  | 28:09.40 |  4:10.00 |    126715    |   145464
        8  | 32:19.40 |  4:52.50 |    145465    |   167414
        9  | 37:12.15 |  2:47.45 |    167415    |   179984
       10  | 39:59.60 |  4:36.40 |    179985    |   200724
       11  | 44:36.25 |  5:44.50 |    200725    |   226574
Range status and errors
Selected range
     Filename D:\torrent1\Kismet - Wake Up Gods\Kismet - Wake Up Gods.wav
     Peak level 100.0 %
     Range quality 100.0 %
     Test CRC A9C4D5CF
     Copy CRC A9C4D5CF
     Copy OK
No errors occurred
AccurateRip summary
Track  1  not present in database
Track  2  not present in database
Track  3  not present in database
Track  4  not present in database
Track  5  not present in database
Track  6  not present in database
Track  7  not present in database
Track  8  not present in database
Track  9  not present in database
Track 10  not present in database
Track 11  not present in database
None of the tracks are present in the AccurateRip database
End of status report
Правила, инструкции, FAQ!!!
Торрент  Добавлен [26 июн 2020, 19:25] Скачать торрент Магнет ссылка
Скачать торрент
[ Размер 12.71 КБ / Просмотров 9 ]

Статус
Проверен 
 
Размер  309.21 МБ
Приватный: Нет (DHT включён)
.torrent скачан  0
 


     Отправить личное сообщение
   
Страница 1 из 1
Показать сообщения за:  Поле сортировки  
Начать новую тему Ответить на тему


Сейчас этот форум просматривают: нет зарегистрированных пользователей и гости: 0


Вы не можете начинать темы
Вы не можете отвечать на сообщения
Вы не можете редактировать свои сообщения
Вы не можете удалять свои сообщения
Вы не можете добавлять вложения

Перейти:  
cron