Начать новую тему Ответить на тему
Статистика раздачи
Размер: 1.21 ГБ | Добавлен: 26 мар 2019, 20:26 | Скачали: 0
Сидеров: 0  [0 байт/сек]    Личеров: 0  [0 байт/сек]
Пред. тема | След. тема 

Автор
Сообщение

СообщениеДобавлено: 26 мар 2019, 20:26 

Ответить с цитатой 


Gary Eckstein - коллекция (3 альбома) - 1979,1981, 1981


Страна исполнителя: Israel
Жанр: Ethniс, Soft-rock, Prog-related || Аудио кодек: FLAC || Тип рипа: (tracks + .cue) || Битрейт аудио: lossless || Включает: Full artwork || Продолжительность: 1:09:44 + 1:09:57 + 38:52 || Источник (релизер): Моя коллекция, мой рип


Музыкант, певец, арранжировщик, продюссер, композитор и один из самых известных и лучших рок-гитаристов 70-ых и 80-ых. Он выпускал оригинальные альбомы и переанжировывал традиционные израильские песни; как гитарист, продюссер и певец, учавствовал в записях самых известных артистов - Шалом Ханох, Меир Ариэль, Шломо Арци и других. По его пути можно проследить всю историю израильского рока: начиная с "ритм-ансамблей" (израильский аналог бит групп начала 60-ых), затем участие в множестве рок групп, работа в Европе, возвращение в Израиль и попытки играть тяжелый рок и блюз-рок, затем признание и востребованность, как студийного гитариста, продюсера, певца и композитора, написавшего множество живущих до сих пор национальных хитов. В его активе девять сольных альбомов, в которых он обращается к корням, к наследию Израильской песни и создает на ее основе оригинальный рок-материал. В этой раздаче выложены второй, третий (в 2CD боксе 2003 года) и четвертый (CD 1991 года) альбомы из его дискографии
Год издания оригинала: 1979
Год переиздания: 2003 Remastering, 2CD Box
Страна - производитель диска: Israel
Издатель (лейбл): Hed Arzi
Номер по каталогу: 64407
Тип: Studio
Трэклист:
01. Today Is Today
02. To The Point
03. Was Good To Me
04. Autumn Wind
05. Tooth Star
06. Boogie Me To Night
07. I'm Walking To Beit-Shean
08. I'm Sleeping In The Guest Room
09. Only Littlies
10. As The Tree In The Water
11. Captain Jack
12. We Have Time
13. Cafe Shop Blues
14. Sun Samba
15. Good Morning And Thank You
16. Have you ever seen the morning
17. Boker
Состав:
Gary Eckstein - Guitar, vocal
Moshe Levi - Fender piano, organ, accordion (1,2,4,5,6,7,8,10,14,16)
Dudu Yadin - piano (11)
Yossy Menachem - bass (1,3,8,9,12-16), keyb. (3)
Dori Lubliver - bass (2,4,6,7,10)
Ilan Dudman - bass (11)
Iki Levi - drums (1)
Alon Halal - drums (2,6)
Yakow Eget - drums (3,12)
Lion Habib - drums (4,14)
Meir Israel - perc., drums (7,8,9)
Amir Bronstein - drums (11)
Yakow Mizrachi - drums (13)
Ilan Wail - trombone (1,15)
Abracham Pelzer - trumpet (1)
Doron Bonim, Chilik Shechem - trumpet (15)
Amikam Kimmelman - sax (1,15)
Shmulik Bar-Oz - harmonika (13)
Код:
REM GENRE "Israeli rock"
REM DATE 1979
REM DISCID F0105811
REM COMMENT "ExactAudioCopy v1.0b2"
PERFORMER "Gary Eckstein"
TITLE "Gary Eckstein"
FILE "01 - Today Is Today.wav" WAVE
  TRACK 01 AUDIO
    TITLE "Today Is Today"
    PERFORMER "Gary Eckstein"
    INDEX 01 00:00:00
FILE "02 - To The Point.wav" WAVE
  TRACK 02 AUDIO
    TITLE "To The Point"
    PERFORMER "Gary Eckstein"
    INDEX 01 00:00:00
FILE "03 - Was Good To Me.wav" WAVE
  TRACK 03 AUDIO
    TITLE "Was Good To Me"
    PERFORMER "Gary Eckstein"
    INDEX 01 00:00:00
FILE "04 - Autumn Wind.wav" WAVE
  TRACK 04 AUDIO
    TITLE "Autumn Wind"
    PERFORMER "Gary Eckstein"
    INDEX 01 00:00:00
FILE "05 - Tooth Star.wav" WAVE
  TRACK 05 AUDIO
    TITLE "Tooth Star"
    PERFORMER "Gary Eckstein"
    INDEX 01 00:00:00
  TRACK 06 AUDIO
    TITLE "Boogie Me To Night"
    PERFORMER "Gary Eckstein"
    INDEX 00 02:34:05
FILE "06 - Boogie Me To Night.wav" WAVE
    INDEX 01 00:00:00
  TRACK 07 AUDIO
    TITLE "I'm Walking To Beit-Shean"
    PERFORMER "Gary Eckstein"
    INDEX 00 04:06:42
FILE "07 - I'm Walking To Beit-Shean.wav" WAVE
    INDEX 01 00:00:00
  TRACK 08 AUDIO
    TITLE "I'm Sleeping In The Guest Room"
    PERFORMER "Gary Eckstein"
    INDEX 00 02:49:19
FILE "08 - I'm Sleeping In The Guest Room.wav" WAVE
    INDEX 01 00:00:00
FILE "09 - Only Littlies.wav" WAVE
  TRACK 09 AUDIO
    TITLE "Only Littlies"
    PERFORMER "Gary Eckstein"
    INDEX 01 00:00:00
  TRACK 10 AUDIO
    TITLE "As The Tree In The Water"
    PERFORMER "Gary Eckstein"
    INDEX 00 03:57:55
FILE "10 - As The Tree In The Water.wav" WAVE
    INDEX 01 00:00:00
  TRACK 11 AUDIO
    TITLE "Captain Jack"
    PERFORMER "Gary Eckstein"
    INDEX 00 02:41:15
FILE "11 - Captain Jack.wav" WAVE
    INDEX 01 00:00:00
FILE "12 - We Have Time.wav" WAVE
  TRACK 12 AUDIO
    TITLE "We Have Time"
    PERFORMER "Gary Eckstein"
    INDEX 01 00:00:00
  TRACK 13 AUDIO
    TITLE "Cafe Shop Blues"
    PERFORMER "Gary Eckstein"
    INDEX 00 06:01:47
FILE "13 - Cafe Shop Blues.wav" WAVE
    INDEX 01 00:00:00
  TRACK 14 AUDIO
    TITLE "Sun Samba"
    PERFORMER "Gary Eckstein"
    INDEX 00 06:47:25
FILE "14 - Sun Samba.wav" WAVE
    INDEX 01 00:00:00
  TRACK 15 AUDIO
    TITLE "Good Morning And Thank You"
    PERFORMER "Gary Eckstein"
    INDEX 00 03:13:44
FILE "15 - Good Morning And Thank You.wav" WAVE
    INDEX 01 00:00:00
  TRACK 16 AUDIO
    TITLE "Have you ever seen the morning"
    PERFORMER "Gary Eckstein"
    INDEX 00 04:35:20
FILE "16 - Have you ever seen the morning.wav" WAVE
    INDEX 01 00:00:00
  TRACK 17 AUDIO
    TITLE "Boker"
    PERFORMER "Gary Eckstein"
    INDEX 00 03:00:50
FILE "17 - Boker.wav" WAVE
    INDEX 01 00:00:00
Код:
Exact Audio Copy V1.0 beta 2 from 29. April 2011
EAC extraction logfile from 12. August 2011, 11:26
Gary Eckstein / Gary Eckstein
Used drive  : HL-DT-STDVDRAM GSA-T50N   Adapter: 1  ID: 0
Read mode               : Secure
Utilize accurate stream : Yes
Defeat audio cache      : Yes
Make use of C2 pointers : No
Read offset correction                      : 667
Overread into Lead-In and Lead-Out          : No
Fill up missing offset samples with silence : Yes
Delete leading and trailing silent blocks   : No
Null samples used in CRC calculations       : Yes
Used interface                              : Native Win32 interface for Win NT & 2000
Gap handling                                : Appended to previous track
Used output format              : User Defined Encoder
Selected bitrate                : 1024 kBit/s
Quality                         : High
Add ID3 tag                     : No
Command line compressor         : C:\Program Files\Exact Audio Copy\Flac\flac.exe
Additional command line options : -8 -V -T "ARTIST=%artist%" -T "TITLE=%title%" -T "ALBUM=%albumtitle%" -T "DATE=%year%" -T "TRACKNUMBER=%tracknr%" -T "GENRE=%genre%" -T "PERFORMER=%albuminterpret%" -T "COMMENT=EAC V1.0 beta 2, Secure Mode, Test & Copy, Acc
TOC of the extracted CD
     Track |   Start  |  Length  | Start sector | End sector
    ---------------------------------------------------------
        1  |  0:00.00 |  3:28.02 |         0    |    15601
        2  |  3:28.02 |  5:42.21 |     15602    |    41272
        3  |  9:10.23 |  4:10.52 |     41273    |    60074
        4  | 13:21.00 |  3:30.52 |     60075    |    75876
        5  | 16:51.52 |  2:35.70 |     75877    |    87571
        6  | 19:27.47 |  4:08.07 |     87572    |   106178
        7  | 23:35.54 |  2:49.33 |    106179    |   118886
        8  | 26:25.12 |  7:17.19 |    118887    |   151680
        9  | 33:42.31 |  3:59.45 |    151681    |   169650
       10  | 37:42.01 |  2:41.45 |    169651    |   181770
       11  | 40:23.46 |  3:17.48 |    181771    |   196593
       12  | 43:41.19 |  6:01.67 |    196594    |   223735
       13  | 49:43.11 |  6:49.15 |    223736    |   254425
       14  | 56:32.26 |  3:15.34 |    254426    |   269084
       15  | 59:47.60 |  4:37.10 |    269085    |   289869
       16  | 64:24.70 |  3:02.40 |    289870    |   303559
       17  | 67:27.35 |  2:16.40 |    303560    |   313799
Track  1
     Filename C:\music\Musicgate's rips\Gary Eckstein - Gary Eckstein and Not For Broadcast - 2003 (2CD edition)\CD1 - Gary Eckstein - 1979\01 - Today Is Today.wav
     Pre-gap length  0:00:02.00
     Peak level 97.7 %
     Extraction speed 2.3 X
     Track quality 100.0 %
     Test CRC 04232980
     Copy CRC 04232980
     Track not present in AccurateRip database
     Copy OK
Track  2
     Filename C:\music\Musicgate's rips\Gary Eckstein - Gary Eckstein and Not For Broadcast - 2003 (2CD edition)\CD1 - Gary Eckstein - 1979\02 - To The Point.wav
     Peak level 97.7 %
     Extraction speed 2.6 X
     Track quality 99.9 %
     Test CRC E3E6C216
     Copy CRC E3E6C216
     Track not present in AccurateRip database
     Copy OK
Track  3
     Filename C:\music\Musicgate's rips\Gary Eckstein - Gary Eckstein and Not For Broadcast - 2003 (2CD edition)\CD1 - Gary Eckstein - 1979\03 - Was Good To Me.wav
     Peak level 97.7 %
     Extraction speed 3.0 X
     Track quality 100.0 %
     Test CRC CA409444
     Copy CRC CA409444
     Track not present in AccurateRip database
     Copy OK
Track  4
     Filename C:\music\Musicgate's rips\Gary Eckstein - Gary Eckstein and Not For Broadcast - 2003 (2CD edition)\CD1 - Gary Eckstein - 1979\04 - Autumn Wind.wav
     Peak level 89.1 %
     Extraction speed 3.1 X
     Track quality 100.0 %
     Test CRC 5DFFCB5A
     Copy CRC 5DFFCB5A
     Track not present in AccurateRip database
     Copy OK
Track  5
     Filename C:\music\Musicgate's rips\Gary Eckstein - Gary Eckstein and Not For Broadcast - 2003 (2CD edition)\CD1 - Gary Eckstein - 1979\05 - Tooth Star.wav
     Peak level 97.7 %
     Extraction speed 3.0 X
     Track quality 100.0 %
     Test CRC 2F30ADF8
     Copy CRC 2F30ADF8
     Track not present in AccurateRip database
     Copy OK
Track  6
     Filename C:\music\Musicgate's rips\Gary Eckstein - Gary Eckstein and Not For Broadcast - 2003 (2CD edition)\CD1 - Gary Eckstein - 1979\06 - Boogie Me To Night.wav
     Pre-gap length  0:00:01.86
     Peak level 92.2 %
     Extraction speed 3.5 X
     Track quality 100.0 %
     Test CRC 5D5AFF71
     Copy CRC 5D5AFF71
     Track not present in AccurateRip database
     Copy OK
Track  7
     Filename C:\music\Musicgate's rips\Gary Eckstein - Gary Eckstein and Not For Broadcast - 2003 (2CD edition)\CD1 - Gary Eckstein - 1979\07 - I'm Walking To Beit-Shean.wav
     Pre-gap length  0:00:01.53
     Peak level 100.0 %
     Extraction speed 3.4 X
     Track quality 100.0 %
     Test CRC ADED211B
     Copy CRC ADED211B
     Track not present in AccurateRip database
     Copy OK
Track  8
     Filename C:\music\Musicgate's rips\Gary Eckstein - Gary Eckstein and Not For Broadcast - 2003 (2CD edition)\CD1 - Gary Eckstein - 1979\08 - I'm Sleeping In The Guest Room.wav
     Pre-gap length  0:00:00.18
     Peak level 94.4 %
     Extraction speed 3.8 X
     Track quality 99.9 %
     Test CRC 31FF1825
     Copy CRC 31FF1825
     Track not present in AccurateRip database
     Copy OK
Track  9
     Filename C:\music\Musicgate's rips\Gary Eckstein - Gary Eckstein and Not For Broadcast - 2003 (2CD edition)\CD1 - Gary Eckstein - 1979\09 - Only Littlies.wav
     Peak level 100.0 %
     Extraction speed 4.0 X
     Track quality 100.0 %
     Test CRC CB48D523
     Copy CRC CB48D523
     Track not present in AccurateRip database
     Copy OK
Track 10
     Filename C:\music\Musicgate's rips\Gary Eckstein - Gary Eckstein and Not For Broadcast - 2003 (2CD edition)\CD1 - Gary Eckstein - 1979\10 - As The Tree In The Water.wav
     Pre-gap length  0:00:01.86
     Peak level 90.1 %
     Extraction speed 3.8 X
     Track quality 100.0 %
     Test CRC 7BDCC648
     Copy CRC 7BDCC648
     Track not present in AccurateRip database
     Copy OK
Track 11
     Filename C:\music\Musicgate's rips\Gary Eckstein - Gary Eckstein and Not For Broadcast - 2003 (2CD edition)\CD1 - Gary Eckstein - 1979\11 - Captain Jack.wav
     Pre-gap length  0:00:00.40
     Peak level 92.2 %
     Extraction speed 4.2 X
     Track quality 100.0 %
     Test CRC CE3AD65B
     Copy CRC CE3AD65B
     Track not present in AccurateRip database
     Copy OK
Track 12
     Filename C:\music\Musicgate's rips\Gary Eckstein - Gary Eckstein and Not For Broadcast - 2003 (2CD edition)\CD1 - Gary Eckstein - 1979\12 - We Have Time.wav
     Peak level 97.7 %
     Extraction speed 4.2 X
     Track quality 99.9 %
     Test CRC A869AB95
     Copy CRC A869AB95
     Track not present in AccurateRip database
     Copy OK
Track 13
     Filename C:\music\Musicgate's rips\Gary Eckstein - Gary Eckstein and Not For Broadcast - 2003 (2CD edition)\CD1 - Gary Eckstein - 1979\13 - Cafe Shop Blues.wav
     Pre-gap length  0:00:00.26
     Peak level 97.7 %
     Extraction speed 4.9 X
     Track quality 100.0 %
     Test CRC 6FB1BEED
     Copy CRC 6FB1BEED
     Track not present in AccurateRip database
     Copy OK
Track 14
     Filename C:\music\Musicgate's rips\Gary Eckstein - Gary Eckstein and Not For Broadcast - 2003 (2CD edition)\CD1 - Gary Eckstein - 1979\14 - Sun Samba.wav
     Pre-gap length  0:00:01.86
     Peak level 97.7 %
     Extraction speed 4.5 X
     Track quality 100.0 %
     Test CRC D1FF474D
     Copy CRC D1FF474D
     Track not present in AccurateRip database
     Copy OK
Track 15
     Filename C:\music\Musicgate's rips\Gary Eckstein - Gary Eckstein and Not For Broadcast - 2003 (2CD edition)\CD1 - Gary Eckstein - 1979\15 - Good Morning And Thank You.wav
     Pre-gap length  0:00:01.86
     Peak level 100.0 %
     Extraction speed 4.9 X
     Track quality 100.0 %
     Test CRC 88A7C7D8
     Copy CRC 88A7C7D8
     Track not present in AccurateRip database
     Copy OK
Track 16
     Filename C:\music\Musicgate's rips\Gary Eckstein - Gary Eckstein and Not For Broadcast - 2003 (2CD edition)\CD1 - Gary Eckstein - 1979\16 - Have you ever seen the morning.wav
     Pre-gap length  0:00:01.86
     Peak level 100.0 %
     Extraction speed 4.7 X
     Track quality 100.0 %
     Test CRC 91510027
     Copy CRC 91510027
     Track not present in AccurateRip database
     Copy OK
Track 17
     Filename C:\music\Musicgate's rips\Gary Eckstein - Gary Eckstein and Not For Broadcast - 2003 (2CD edition)\CD1 - Gary Eckstein - 1979\17 - Boker.wav
     Pre-gap length  0:00:01.86
     Peak level 97.7 %
     Extraction speed 4.6 X
     Track quality 100.0 %
     Test CRC B6886377
     Copy CRC B6886377
     Track not present in AccurateRip database
     Copy OK
None of the tracks are present in the AccurateRip database
No errors occurred
End of status report
==== Log checksum 10D61E18A8C5DBF76D2EB12FC4297F3C2DC5959CBCF0EE0FAA62E4F2FB4237C6 ====
#777Год издания оригинала: 1981
Год переиздания: 2003 Remastering, 2CD Box
Страна - производитель диска: Israel
Издатель (лейбл): Hed Arzi
Номер по каталогу: 64407
Тип: Studio
Трэклист:
01. Aya And Dan
02. Suzi
03. Dry Egg
04. Twelve Night
05. Not Normal
06. Not For Broadcast
07. Playing Again
08. One More Peace
09. Who's Afraid Of Rock-n-roll
10. Fall
11. Girl Wanted
12. Red Cup
13. Cafe Store Blues. Nueba
14. Transitions (From musical "Trump to the Death")
15. Sunrise (From musical "Trump to the Death")
16. All We Angels (From musical "Trump to the Death")
17. Suddenly You Did Not Come (Duet with Shlomo Arzi)
Состав:
Gary Eckstein - Guitar, vocal
Dani Angel - vocal (10
Moshe Levi - keyboards (1,5,12,14-16
Dorin Malki - keyboards (2,3,6-9
Nenci Brandes - keyboards (4
Roli Angel - organ (10
Yakow Erlich - keyboards (11
Eitan Gadron - bass (1,5
Moti Dikna - bass (2,7,8
Miki Shaviv - bass (4
Yossy Menachem - bass (3,9,11-16
Eli Koen - bass (10
Meir Israel - drums (1,5
Shlomo Hamami - drums (2,7,8
Iki Levi - drums (3,6,9,14-16
Itzhak Levi - drums (10
Yakow Eget - drums (11
Lion Haviv - drums (12
Yossy Menachem - bass (3
Alon Halal - drums (4)
Shmulik Bar-Oz - harmonika (13)
Yakow Mizrachi - drums (13)
Ilan Wail - trombone (14,16)
Abracham Pelzer - trumpet (14,16)
Amikam Kimmelman - sax (14,16)
Код:
REM GENRE Rock
REM DATE 1981
REM DISCID FC106511
REM COMMENT "ExactAudioCopy v1.0b2"
PERFORMER "Gary Eckstein"
TITLE "Not For Broadcast"
FILE "01 - Aya And Dan.wav" WAVE
  TRACK 01 AUDIO
    TITLE "Aya And Dan"
    PERFORMER "Not For Broadcast"
    INDEX 01 00:00:00
FILE "02 - Suzi.wav" WAVE
  TRACK 02 AUDIO
    TITLE "Suzi"
    PERFORMER "Not For Broadcast"
    INDEX 01 00:00:00
  TRACK 03 AUDIO
    TITLE "Dry Egg"
    PERFORMER "Not For Broadcast"
    INDEX 00 04:26:04
FILE "03 - Dry Egg.wav" WAVE
    INDEX 01 00:00:00
FILE "04 - Twelve Night.wav" WAVE
  TRACK 04 AUDIO
    TITLE "Twelve Night"
    PERFORMER "Not For Broadcast"
    INDEX 01 00:00:00
FILE "05 - Not Normal.wav" WAVE
  TRACK 05 AUDIO
    TITLE "Not Normal"
    PERFORMER "Not For Broadcast"
    INDEX 01 00:00:00
FILE "06 - Not For Broadcast.wav" WAVE
  TRACK 06 AUDIO
    TITLE "Not For Broadcast"
    PERFORMER "Not For Broadcast"
    INDEX 01 00:00:00
FILE "07 - Playing Again.wav" WAVE
  TRACK 07 AUDIO
    TITLE "Playing Again"
    PERFORMER "Not For Broadcast"
    INDEX 01 00:00:00
FILE "08 - One More Peace.wav" WAVE
  TRACK 08 AUDIO
    TITLE "One More Peace"
    PERFORMER "Not For Broadcast"
    INDEX 01 00:00:00
FILE "09 - Who's Afraid Of Rock-n-roll.wav" WAVE
  TRACK 09 AUDIO
    TITLE "Who's Afraid Of Rock-n-roll"
    PERFORMER "Not For Broadcast"
    INDEX 01 00:00:00
FILE "10 - Fall.wav" WAVE
  TRACK 10 AUDIO
    TITLE "Fall"
    PERFORMER "Not For Broadcast"
    INDEX 01 00:00:00
FILE "11 - Girl Wanted.wav" WAVE
  TRACK 11 AUDIO
    TITLE "Girl Wanted"
    PERFORMER "Not For Broadcast"
    INDEX 01 00:00:00
FILE "12 - Red Cup.wav" WAVE
  TRACK 12 AUDIO
    TITLE "Red Cup"
    PERFORMER "Not For Broadcast"
    INDEX 01 00:00:00
FILE "13 - Cafe Store Blues - Nueba.wav" WAVE
  TRACK 13 AUDIO
    TITLE "Cafe Store Blues - Nueba"
    PERFORMER "Not For Broadcast"
    INDEX 01 00:00:00
FILE "14 - Transitions.wav" WAVE
  TRACK 14 AUDIO
    TITLE "Transitions"
    PERFORMER "Not For Broadcast"
    INDEX 01 00:00:00
FILE "15 - Sunrise.wav" WAVE
  TRACK 15 AUDIO
    TITLE "Sunrise"
    PERFORMER "Not For Broadcast"
    INDEX 01 00:00:00
  TRACK 16 AUDIO
    TITLE "All We Angels"
    PERFORMER "Not For Broadcast"
    INDEX 00 03:16:20
FILE "16 - All We Angels.wav" WAVE
    INDEX 01 00:00:00
FILE "17 - Suddenly You Did Not Come.wav" WAVE
  TRACK 17 AUDIO
    TITLE "Suddenly You Did Not Come"
    PERFORMER "Not For Broadcast"
    INDEX 01 00:00:00
Код:
Exact Audio Copy V1.0 beta 2 from 29. April 2011
EAC extraction logfile from 12. August 2011, 15:25
Gary Eckstein / Not For Broadcast
Used drive  : HL-DT-STDVDRAM GSA-T50N   Adapter: 1  ID: 0
Read mode               : Secure
Utilize accurate stream : Yes
Defeat audio cache      : Yes
Make use of C2 pointers : No
Read offset correction                      : 667
Overread into Lead-In and Lead-Out          : No
Fill up missing offset samples with silence : Yes
Delete leading and trailing silent blocks   : No
Null samples used in CRC calculations       : Yes
Used interface                              : Native Win32 interface for Win NT & 2000
Gap handling                                : Appended to previous track
Used output format              : User Defined Encoder
Selected bitrate                : 1024 kBit/s
Quality                         : High
Add ID3 tag                     : No
Command line compressor         : C:\Program Files\Exact Audio Copy\Flac\flac.exe
Additional command line options : -8 -V -T "ARTIST=%artist%" -T "TITLE=%title%" -T "ALBUM=%albumtitle%" -T "DATE=%year%" -T "TRACKNUMBER=%tracknr%" -T "GENRE=%genre%" -T "PERFORMER=%albuminterpret%" -T "COMMENT=EAC V1.0 beta 2, Secure Mode, Test & Copy, Acc
TOC of the extracted CD
     Track |   Start  |  Length  | Start sector | End sector
    ---------------------------------------------------------
        1  |  0:00.00 |  3:05.23 |         0    |    13897
        2  |  3:05.23 |  4:26.48 |     13898    |    33895
        3  |  7:31.71 |  3:49.31 |     33896    |    51101
        4  | 11:21.27 |  4:42.11 |     51102    |    72262
        5  | 16:03.38 |  2:58.18 |     72263    |    85630
        6  | 19:01.56 |  3:32.72 |     85631    |   101602
        7  | 22:34.53 |  6:02.41 |    101603    |   128793
        8  | 28:37.19 |  5:22.18 |    128794    |   152961
        9  | 33:59.37 |  4:36.50 |    152962    |   173711
       10  | 38:36.12 |  2:43.60 |    173712    |   185996
       11  | 41:19.72 |  2:48.73 |    185997    |   198669
       12  | 44:08.70 |  5:17.64 |    198670    |   222508
       13  | 49:26.59 |  6:41.61 |    222509    |   252644
       14  | 56:08.45 |  2:27.19 |    252645    |   263688
       15  | 58:35.64 |  3:18.00 |    263689    |   278538
       16  | 61:53.64 |  3:43.11 |    278539    |   295274
       17  | 65:37.00 |  4:20.49 |    295275    |   314823
Track  1
     Filename C:\music\Musicgate's rips\Gary Eckstein - Gary Eckstein and Not For Broadcast - 2003 (2CD edition)\CD2 - Not For Broadcast - 1981\01 - Aya And Dan.wav
     Pre-gap length  0:00:02.00
     Peak level 90.1 %
     Extraction speed 2.3 X
     Track quality 100.0 %
     Test CRC 4953A806
     Copy CRC 4953A806
     Track not present in AccurateRip database
     Copy OK
Track  2
     Filename C:\music\Musicgate's rips\Gary Eckstein - Gary Eckstein and Not For Broadcast - 2003 (2CD edition)\CD2 - Not For Broadcast - 1981\02 - Suzi.wav
     Peak level 93.3 %
     Extraction speed 2.7 X
     Track quality 100.0 %
     Test CRC 57D46AF3
     Copy CRC 57D46AF3
     Track not present in AccurateRip database
     Copy OK
Track  3
     Filename C:\music\Musicgate's rips\Gary Eckstein - Gary Eckstein and Not For Broadcast - 2003 (2CD edition)\CD2 - Not For Broadcast - 1981\03 - Dry Egg.wav
     Pre-gap length  0:00:00.58
     Peak level 97.7 %
     Extraction speed 2.5 X
     Track quality 99.9 %
     Test CRC 4CAFB2F8
     Copy CRC 4CAFB2F8
     Track not present in AccurateRip database
     Copy OK
Track  4
     Filename C:\music\Musicgate's rips\Gary Eckstein - Gary Eckstein and Not For Broadcast - 2003 (2CD edition)\CD2 - Not For Broadcast - 1981\04 - Twelve Night.wav
     Peak level 97.7 %
     Extraction speed 3.1 X
     Track quality 100.0 %
     Test CRC 77F713AF
     Copy CRC 77F713AF
     Track not present in AccurateRip database
     Copy OK
Track  5
     Filename C:\music\Musicgate's rips\Gary Eckstein - Gary Eckstein and Not For Broadcast - 2003 (2CD edition)\CD2 - Not For Broadcast - 1981\05 - Not Normal.wav
     Peak level 100.0 %
     Extraction speed 3.1 X
     Track quality 100.0 %
     Test CRC AF10C7BF
     Copy CRC AF10C7BF
     Track not present in AccurateRip database
     Copy OK
Track  6
     Filename C:\music\Musicgate's rips\Gary Eckstein - Gary Eckstein and Not For Broadcast - 2003 (2CD edition)\CD2 - Not For Broadcast - 1981\06 - Not For Broadcast.wav
     Peak level 97.7 %
     Extraction speed 3.4 X
     Track quality 100.0 %
     Test CRC 85F34264
     Copy CRC 85F34264
     Track not present in AccurateRip database
     Copy OK
Track  7
     Filename C:\music\Musicgate's rips\Gary Eckstein - Gary Eckstein and Not For Broadcast - 2003 (2CD edition)\CD2 - Not For Broadcast - 1981\07 - Playing Again.wav
     Peak level 97.7 %
     Extraction speed 3.5 X
     Track quality 99.9 %
     Test CRC F05A868D
     Copy CRC F05A868D
     Track not present in AccurateRip database
     Copy OK
Track  8
     Filename C:\music\Musicgate's rips\Gary Eckstein - Gary Eckstein and Not For Broadcast - 2003 (2CD edition)\CD2 - Not For Broadcast - 1981\08 - One More Peace.wav
     Peak level 97.7 %
     Extraction speed 4.0 X
     Track quality 100.0 %
     Test CRC 1CC621AD
     Copy CRC 1CC621AD
     Track not present in AccurateRip database
     Copy OK
Track  9
     Filename C:\music\Musicgate's rips\Gary Eckstein - Gary Eckstein and Not For Broadcast - 2003 (2CD edition)\CD2 - Not For Broadcast - 1981\09 - Who's Afraid Of Rock-n-roll.wav
     Peak level 97.7 %
     Extraction speed 4.2 X
     Track quality 100.0 %
     Test CRC B3E6421A
     Copy CRC B3E6421A
     Track not present in AccurateRip database
     Copy OK
Track 10
     Filename C:\music\Musicgate's rips\Gary Eckstein - Gary Eckstein and Not For Broadcast - 2003 (2CD edition)\CD2 - Not For Broadcast - 1981\10 - Fall.wav
     Peak level 97.7 %
     Extraction speed 4.0 X
     Track quality 100.0 %
     Test CRC 740FFDB8
     Copy CRC 740FFDB8
     Track not present in AccurateRip database
     Copy OK
Track 11
     Filename C:\music\Musicgate's rips\Gary Eckstein - Gary Eckstein and Not For Broadcast - 2003 (2CD edition)\CD2 - Not For Broadcast - 1981\11 - Girl Wanted.wav
     Peak level 100.0 %
     Extraction speed 3.4 X
     Track quality 99.9 %
     Test CRC BD6A1D88
     Copy CRC BD6A1D88
     Track not present in AccurateRip database
     Copy OK
Track 12
     Filename C:\music\Musicgate's rips\Gary Eckstein - Gary Eckstein and Not For Broadcast - 2003 (2CD edition)\CD2 - Not For Broadcast - 1981\12 - Red Cup.wav
     Peak level 97.7 %
     Extraction speed 4.6 X
     Track quality 100.0 %
     Test CRC 04BB2963
     Copy CRC 04BB2963
     Track not present in AccurateRip database
     Copy OK
Track 13
     Filename C:\music\Musicgate's rips\Gary Eckstein - Gary Eckstein and Not For Broadcast - 2003 (2CD edition)\CD2 - Not For Broadcast - 1981\13 - Cafe Store Blues - Nueba.wav
     Peak level 97.7 %
     Extraction speed 4.9 X
     Track quality 100.0 %
     Test CRC 46F373F5
     Copy CRC 46F373F5
     Track not present in AccurateRip database
     Copy OK
Track 14
     Filename C:\music\Musicgate's rips\Gary Eckstein - Gary Eckstein and Not For Broadcast - 2003 (2CD edition)\CD2 - Not For Broadcast - 1981\14 - Transitions.wav
     Peak level 97.7 %
     Extraction speed 4.3 X
     Track quality 100.0 %
     Test CRC 78E47A95
     Copy CRC 78E47A95
     Track not present in AccurateRip database
     Copy OK
Track 15
     Filename C:\music\Musicgate's rips\Gary Eckstein - Gary Eckstein and Not For Broadcast - 2003 (2CD edition)\CD2 - Not For Broadcast - 1981\15 - Sunrise.wav
     Peak level 97.7 %
     Extraction speed 2.8 X
     Track quality 100.0 %
     Test CRC AD4A010B
     Copy CRC AD4A010B
     Track not present in AccurateRip database
     Copy OK
Track 16
     Filename C:\music\Musicgate's rips\Gary Eckstein - Gary Eckstein and Not For Broadcast - 2003 (2CD edition)\CD2 - Not For Broadcast - 1981\16 - All We Angels.wav
     Pre-gap length  0:00:01.73
     Peak level 100.0 %
     Extraction speed 2.5 X
     Track quality 100.0 %
     Test CRC 9B98CB8E
     Copy CRC 9B98CB8E
     Track not present in AccurateRip database
     Copy OK
Track 17
     Filename C:\music\Musicgate's rips\Gary Eckstein - Gary Eckstein and Not For Broadcast - 2003 (2CD edition)\CD2 - Not For Broadcast - 1981\17 - Suddenly You Did Not Come.wav
     Peak level 83.1 %
     Extraction speed 2.3 X
     Track quality 99.9 %
     Test CRC D4E64D2F
     Copy CRC D4E64D2F
     Track not present in AccurateRip database
     Copy OK
None of the tracks are present in the AccurateRip database
No errors occurred
End of status report
==== Log checksum 184B6DE9BF9EE638417AC18FF83DE9A8EDEBB6E344E1886536D4B441B7037F5E ====
#777Год издания оригинала: 1981
Год переиздания: 1991
Страна - производитель диска:
Издатель (лейбл): Hed Arzi
Номер по каталогу: 14845
Тип: Studio
Трэклист:
1. To Desert What We Are.... - 1:44 (A.Pen - tradd.)
2. Riders Convoy - 5:19 (Eli Paz - Shimon Israeli)
3. Lights Out - 4:42 (Naomi Shemer)
4. Stockmens Song - 2:59 (Moshe Dor - Iosef Hadar)
5. Land - 0:58 (Ihieli - Tradd.)
6. Soil Of My Land - 3:30 (Alexander Pen - Mordehai Zaira)
7. To Desert - 3:00 (Haim Hefer - Alexander Argov)
8. Night Trip - 4:02 (Amos Ettinger - Meir Noy)
9. Edge Of The Village - 1:26 (Emmanuel Zamir)
10. Across The River - 7:06 (Shaul Tzherniachovsky - tradd.)
11. Lipa Driver. - 4:03 (Ihiel Mohar - Arie Lebnun)
Состав:
Gary Ekstein, Moshe Levi - voices
Gary Ekstein - guitar
Moshe Levi - keyboards (3,6,7,8,10,11), percussion (3)
Miki Shaviv - bass (2,3,6,7)
Alon Nadel - bass (8,10,11)
Meir Israeli - drums (2,3,6,7,8,9,10,11)
Код:
REM GENRE Israel
REM DATE 1991
REM DISCID 9A091D0B
REM COMMENT "ExactAudioCopy v0.99pb5"
PERFORMER "Gary Ekstein"
TITLE "Fata Morgana"
FILE "01 - To Desert What We Are....wav" WAVE
  TRACK 01 AUDIO
    TITLE "To Desert What We Are..."
    PERFORMER "Gary Ekstein"
    PREGAP 00:00:33
    INDEX 01 00:00:00
FILE "02 - Riders Convoy.wav" WAVE
  TRACK 02 AUDIO
    TITLE "Riders Convoy"
    PERFORMER "Gary Ekstein"
    INDEX 01 00:00:00
FILE "03 - Lights Out.wav" WAVE
  TRACK 03 AUDIO
    TITLE "Lights Out"
    PERFORMER "Gary Ekstein"
    INDEX 01 00:00:00
FILE "04 - Stockmens Song.wav" WAVE
  TRACK 04 AUDIO
    TITLE "Stockmens Song"
    PERFORMER "Gary Ekstein"
    INDEX 01 00:00:00
FILE "05 - Land.wav" WAVE
  TRACK 05 AUDIO
    TITLE "Land"
    PERFORMER "Gary Ekstein"
    INDEX 01 00:00:00
FILE "06 - Soil Of My Land.wav" WAVE
  TRACK 06 AUDIO
    TITLE "Soil Of My Land"
    PERFORMER "Gary Ekstein"
    INDEX 01 00:00:00
FILE "07 - To Desert.wav" WAVE
  TRACK 07 AUDIO
    TITLE "To Desert"
    PERFORMER "Gary Ekstein"
    INDEX 01 00:00:00
FILE "08 - Night Trip.wav" WAVE
  TRACK 08 AUDIO
    TITLE "Night Trip"
    PERFORMER "Gary Ekstein"
    INDEX 01 00:00:00
FILE "09 - Edge Of The Village.wav" WAVE
  TRACK 09 AUDIO
    TITLE "Edge Of The Village"
    PERFORMER "Gary Ekstein"
    INDEX 01 00:00:00
FILE "10 - Across The River.wav" WAVE
  TRACK 10 AUDIO
    TITLE "Across The River"
    PERFORMER "Gary Ekstein"
    INDEX 01 00:00:00
FILE "11 - Lipa Driver.wav" WAVE
  TRACK 11 AUDIO
    TITLE "Lipa Driver"
    PERFORMER "Gary Ekstein"
    INDEX 01 00:00:00
Код:
Exact Audio Copy V0.99 prebeta 5 from 4. May 2009
EAC extraction logfile from 9. March 2011, 21:37
Gary Ekstein / Fata Morgana
Used drive  : HL-DT-STDVD-RAM GH22NP20   Adapter: 0  ID: 0
Read mode               : Secure
Utilize accurate stream : Yes
Defeat audio cache      : Yes
Make use of C2 pointers : No
Read offset correction                      : 102
Overread into Lead-In and Lead-Out          : No
Fill up missing offset samples with silence : Yes
Delete leading and trailing silent blocks   : No
Null samples used in CRC calculations       : Yes
Used interface                              : Native Win32 interface for Win NT & 2000
Gap handling                                : Appended to previous track
Used output format              : User Defined Encoder
Selected bitrate                : 1024 kBit/s
Quality                         : High
Add ID3 tag                     : No
Command line compressor         : C:\Program Files\Exact Audio Copy\Flac\flac.exe
Additional command line options : -8 -V -T "ARTIST=%a" -T "TITLE=%t" -T "ALBUM=%g" -T "DATE=%y" -T "TRACKNUMBER=%n" -T "GENRE=%m" -T "COMMENT=EAC FLAC -8" %s
TOC of the extracted CD
     Track |   Start  |  Length  | Start sector | End sector
    ---------------------------------------------------------
        1  |  0:00.33 |  1:44.27 |        33    |     7859
        2  |  1:44.60 |  5:19.03 |      7860    |    31787
        3  |  7:03.63 |  4:42.45 |     31788    |    52982
        4  | 11:46.33 |  2:59.32 |     52983    |    66439
        5  | 14:45.65 |  0:58.05 |     66440    |    70794
        6  | 15:43.70 |  3:30.30 |     70795    |    86574
        7  | 19:14.25 |  3:00.10 |     86575    |   100084
        8  | 22:14.35 |  4:02.35 |    100085    |   118269
        9  | 26:16.70 |  1:26.63 |    118270    |   124782
       10  | 27:43.58 |  7:06.25 |    124783    |   156757
       11  | 34:50.08 |  4:03.00 |    156758    |   174982
Track  1
     Filename D:\music\Musicgate's rips\Gary Ekstein - Fata Morgana - 1991\01 - To Desert What We Are....wav
     Pre-gap length  0:00:02.33
     Peak level 43.9 %
     Track quality 100.0 %
     Test CRC 44949591
     Copy CRC 44949591
     Track not present in AccurateRip database
     Copy OK
Track  2
     Filename D:\music\Musicgate's rips\Gary Ekstein - Fata Morgana - 1991\02 - Riders Convoy.wav
     Peak level 74.8 %
     Track quality 100.0 %
     Test CRC 7FC0349F
     Copy CRC 7FC0349F
     Track not present in AccurateRip database
     Copy OK
Track  3
     Filename D:\music\Musicgate's rips\Gary Ekstein - Fata Morgana - 1991\03 - Lights Out.wav
     Peak level 57.0 %
     Track quality 99.9 %
     Test CRC F8611CC5
     Copy CRC F8611CC5
     Track not present in AccurateRip database
     Copy OK
Track  4
     Filename D:\music\Musicgate's rips\Gary Ekstein - Fata Morgana - 1991\04 - Stockmens Song.wav
     Peak level 52.1 %
     Track quality 100.0 %
     Test CRC 222BCFFD
     Copy CRC 222BCFFD
     Track not present in AccurateRip database
     Copy OK
Track  5
     Filename D:\music\Musicgate's rips\Gary Ekstein - Fata Morgana - 1991\05 - Land.wav
     Peak level 55.0 %
     Track quality 100.0 %
     Test CRC 25BE64B7
     Copy CRC 25BE64B7
     Track not present in AccurateRip database
     Copy OK
Track  6
     Filename D:\music\Musicgate's rips\Gary Ekstein - Fata Morgana - 1991\06 - Soil Of My Land.wav
     Peak level 61.5 %
     Track quality 100.0 %
     Test CRC 37C00661
     Copy CRC 37C00661
     Track not present in AccurateRip database
     Copy OK
Track  7
     Filename D:\music\Musicgate's rips\Gary Ekstein - Fata Morgana - 1991\07 - To Desert.wav
     Peak level 79.0 %
     Track quality 100.0 %
     Test CRC 7956B7AA
     Copy CRC 7956B7AA
     Track not present in AccurateRip database
     Copy OK
Track  8
     Filename D:\music\Musicgate's rips\Gary Ekstein - Fata Morgana - 1991\08 - Night Trip.wav
     Peak level 60.4 %
     Track quality 100.0 %
     Test CRC 18EE1E41
     Copy CRC 18EE1E41
     Track not present in AccurateRip database
     Copy OK
Track  9
     Filename D:\music\Musicgate's rips\Gary Ekstein - Fata Morgana - 1991\09 - Edge Of The Village.wav
     Peak level 65.4 %
     Track quality 100.0 %
     Test CRC F2290C3E
     Copy CRC F2290C3E
     Track not present in AccurateRip database
     Copy OK
Track 10
     Filename D:\music\Musicgate's rips\Gary Ekstein - Fata Morgana - 1991\10 - Across The River.wav
     Peak level 78.1 %
     Track quality 99.9 %
     Test CRC C9894D0A
     Copy CRC C9894D0A
     Track not present in AccurateRip database
     Copy OK
Track 11
     Filename D:\music\Musicgate's rips\Gary Ekstein - Fata Morgana - 1991\11 - Lipa Driver.wav
     Peak level 72.8 %
     Track quality 100.0 %
     Test CRC 38619F6F
     Copy CRC 38619F6F
     Track not present in AccurateRip database
     Copy OK
None of the tracks are present in the AccurateRip database
No errors occurred
End of status report
Я не сидирую все свои раздачи подолгу, только новые (до 3х первых сидов)
Предлагаю скачавшим максимально долго оставаться на раздаче - весь рейтинг будет ваш
За своими раздачами не слежу - если нет сидов или раздача находится в архиве, пришлите письмо, и я вернусь
Правила, инструкции, FAQ!!!
Торрент  Добавлен [26 мар 2019, 20:26] Скачать торрент Магнет ссылка
Скачать торрент
[ Размер 23.75 КБ / Просмотров 1 ]

Статус
Проверен 
 
Размер  1.21 ГБ
Приватный: Нет (DHT включён)
.torrent скачан  0
 


     Отправить личное сообщение
   
Страница 1 из 1
Показать сообщения за:  Поле сортировки  
Начать новую тему Ответить на тему


Сейчас этот форум просматривают: нет зарегистрированных пользователей и гости: 0


Вы не можете начинать темы
Вы не можете отвечать на сообщения
Вы не можете редактировать свои сообщения
Вы не можете удалять свои сообщения
Вы не можете добавлять вложения

Перейти:  
cron