Начать новую тему Ответить на тему
Статистика раздачи
Размер: 476.64 МБ | Добавлен: 26 июн 2020, 20:34 | Скачали: 0
Сидеров: 0  [0 байт/сек]    Личеров: 0  [0 байт/сек]
Пред. тема | След. тема 

Автор
Сообщение

СообщениеДобавлено: 26 июн 2020, 20:34 

Ответить с цитатой 

E NOMINE / Finsternis
Жанр: Electronic, Trance, Modern Classical, Euro House
Страна-производитель диска: Germany
Год издания диска: 21 Jan 2002
Издатель (лейбл): Zeitgeist / Polydor
Номер по каталогу: 589 536-2
Страна: Germany
Аудиокодек: FLAC (*.flac)
Тип рипа: image+.cue
Битрейт аудио: lossless
Продолжительность: 01:10:45
Источник (релизер): собственный диск
Наличие сканов в содержимом раздачи: да
Треклист:
1. Am Anfang War Die Finsternis ...! 0:45
2. Mitternacht 3:48
3. Die Wandlung - Interlude 0:29
4. Wolfen (Das Tier In Mir) 4:40
5. Reise Nach Transsilvanien - Interlude 0:23
6. Dracul's Bluthochzeit 5:58
7. Die Offenbarung - Interlude 0:23
8. Séance 4:26
9. Die Bedrohung - Interlude 0:17
10. Das Böse 4:00
11. Die Suche - Interlude 0:31
12. Die Schwarzen Reiter 4:42
13. Die Verlautbarung - Interlude 0:45
14. Zorn - Die 12 Verbotenen Töne 3:47
15. Hexenein X Eins - Interlude 0:48
16. Hexenjagd 3:56
17. Das Unheil - Interlude 0:28
18. Der Exorzist 4:40
19. Der Tod - Interlude 0:26
20. Herr Der Schatten 4:05
21. Der Ahnungsschauer - Interlude 0:29
22. Angst 4:52
23. Der Schrei - Interlude 0:37
24. Exitus 3:28
25. Das Schweigen - Interlude 0:42
26. Die Nachtwache 5:11
27. Die Stimme ... - Interlude 0:29
28. Aus Dem Jenseits 5:27
Код:
Exact Audio Copy V0.99 prebeta 5 from 4. May 2009
Отчёт EAC об извлечении, выполненном 28. августа 2011, 9:35
E Nomine / Finsternis
Дисковод: ASUS    DRW-22B2ST   Adapter: 4  ID: 0
Режим чтения                 : Достоверность
Использование точного потока : Да
Отключение кэша аудио        : Да
Использование указателей C2  : Нет
Коррекция смещения при чтении                     : 6
Способность читать области Lead-in и Lead-out     : Нет
Заполнение пропущенных сэмплов тишиной            : Да
Удаление блоков с тишиной в начале и конце        : Нет
При вычислениях CRC использовались нулевые сэмплы : Да
Интерфейс                                         : Встроенный Win32-интерфейс для Win NT/2000
Выходной формат : Внутренние WAV-операции
Формат сэмплов  : 44.100 Гц; 16 бит; стерео
TOC извлечённого CD
     Трек |   Старт  | Длительность | Начальный сектор | Конечный сектор
    ---------------------------------------------------------------------
       1  |  0:00.00 |    0:45.04   |           0      |       3378
       2  |  0:45.04 |    3:48.43   |        3379      |      20521
       3  |  4:33.47 |    0:29.30   |       20522      |      22726
       4  |  5:03.02 |    4:40.11   |       22727      |      43737
       5  |  9:43.13 |    0:23.13   |       43738      |      45475
       6  | 10:06.26 |    5:58.13   |       45476      |      72338
       7  | 16:04.39 |    0:23.63   |       72339      |      74126
       8  | 16:28.27 |    4:26.13   |       74127      |      94089
       9  | 20:54.40 |    0:17.63   |       94090      |      95427
      10  | 21:12.28 |    4:00.59   |       95428      |     113486
      11  | 25:13.12 |    0:31.40   |      113487      |     115851
      12  | 25:44.52 |    4:42.61   |      115852      |     137062
      13  | 30:27.38 |    0:45.32   |      137063      |     140469
      14  | 31:12.70 |    3:47.09   |      140470      |     157503
      15  | 35:00.04 |    0:48.37   |      157504      |     161140
      16  | 35:48.41 |    3:56.72   |      161141      |     178912
      17  | 39:45.38 |    0:28.42   |      178913      |     181054
      18  | 40:14.05 |    4:40.72   |      181055      |     202126
      19  | 44:55.02 |    0:26.59   |      202127      |     204135
      20  | 45:21.61 |    4:05.31   |      204136      |     222541
      21  | 49:27.17 |    0:29.09   |      222542      |     224725
      22  | 49:56.26 |    4:52.16   |      224726      |     246641
      23  | 54:48.42 |    0:37.00   |      246642      |     249416
      24  | 55:25.42 |    3:28.41   |      249417      |     265057
      25  | 58:54.08 |    0:42.18   |      265058      |     268225
      26  | 59:36.26 |    5:11.61   |      268226      |     291611
      27  | 64:48.12 |    0:29.27   |      291612      |     293813
      28  | 65:17.39 |    5:27.67   |      293814      |     318405
Характеристики диапазона извлечения и сообщения об ошибках
Выбранный диапазон
     Имя файла K:\Enigmatic\E Nomine - Finsternis\E Nomine - Finsternis.wav
     Пиковый уровень 100.0 %
     Качество диапазона 100.0 %
     CRC теста A0D92BCB
     CRC копии A0D92BCB
     Копирование... OK
Ошибок не произошло
AccurateRip: сводка
Трек  1  точность не определена (достоверность 21)  [E006B56F], AccurateRip вернул [DD4E33F6]
Трек  2  точность не определена (достоверность 21)  [BE80F10B], AccurateRip вернул [A36F575B]
Трек  3  точность не определена (достоверность 21)  [8FF87D21], AccurateRip вернул [F5B2D63A]
Трек  4  точность не определена (достоверность 21)  [6807C09B], AccurateRip вернул [E7A58DBB]
Трек  5  точность не определена (достоверность 21)  [BEFBC551], AccurateRip вернул [8B1F1F2B]
Трек  6  точность не определена (достоверность 21)  [C1CE3F51], AccurateRip вернул [566D5FB5]
Трек  7  точность не определена (достоверность 21)  [FCAAD5A7], AccurateRip вернул [094C3EED]
Трек  8  точность не определена (достоверность 21)  [169A53D2], AccurateRip вернул [EFBA895C]
Трек  9  точность не определена (достоверность 21)  [DB8DCAFB], AccurateRip вернул [1A3A6F11]
Трек 10  точность не определена (достоверность 20)  [D51E529B], AccurateRip вернул [87D3216B]
Трек 11  точность не определена (достоверность 21)  [DCB798EC], AccurateRip вернул [BBB50D8A]
Трек 12  точность не определена (достоверность 21)  [19E39C5B], AccurateRip вернул [F0691116]
Трек 13  точность не определена (достоверность 21)  [B92581B2], AccurateRip вернул [4D6FC514]
Трек 14  точность не определена (достоверность 22)  [D67EF9F2], AccurateRip вернул [407D28B3]
Трек 15  точность не определена (достоверность 21)  [5717BF68], AccurateRip вернул [6511BAF4]
Трек 16  точность не определена (достоверность 21)  [D82B1FDC], AccurateRip вернул [DA7DB0F6]
Трек 17  точность не определена (достоверность 21)  [F88BEEE3], AccurateRip вернул [45085A0F]
Трек 18  точность не определена (достоверность 22)  [3889AD9A], AccurateRip вернул [BD598B82]
Трек 19  точность не определена (достоверность 21)  [5918179F], AccurateRip вернул [D6D991BE]
Трек 20  точность не определена (достоверность 21)  [81CBA665], AccurateRip вернул [180862ED]
Трек 21  точность не определена (достоверность 20)  [63B63960], AccurateRip вернул [A6371B42]
Трек 22  точность не определена (достоверность 20)  [17DB73EE], AccurateRip вернул [858FFC60]
Трек 23  точность не определена (достоверность 21)  [AEAB98C1], AccurateRip вернул [C908D845]
Трек 24  точность не определена (достоверность 21)  [CDBF3077], AccurateRip вернул [E097E2A9]
Трек 25  точность не определена (достоверность 21)  [DEF4DA24], AccurateRip вернул [4ED5B3DB]
Трек 26  точность не определена (достоверность 21)  [B7F12881], AccurateRip вернул [122AE9ED]
Трек 27  точность не определена (достоверность 21)  [E409B195], AccurateRip вернул [43D342C4]
Трек 28  точность не определена (достоверность 20)  [BD00DFFE], AccurateRip вернул [A4D02E95]
Ни один трек не прошёл проверки на точность
В вашей базе может быть иной вариант штамповки диска
Конец отчёта
Код:
REM GENRE Electronic
REM DATE 2002
REM DISCID C410951C
REM COMMENT "ExactAudioCopy v0.99pb5"
PERFORMER "E Nomine"
TITLE "Finsternis"
FILE "E Nomine - Finsternis.wav" WAVE
  TRACK 01 AUDIO
    TITLE "Am Anfang War Die Finsternis ...!"
    PERFORMER "E Nomine"
    INDEX 01 00:00:00
  TRACK 02 AUDIO
    TITLE "Mtternacht (Deutsche Synchronstimme: Robert De Niro)"
    PERFORMER "E Nomine"
    INDEX 01 00:45:04
  TRACK 03 AUDIO
    TITLE "Die Wandlung Interlude"
    PERFORMER "E Nomine"
    INDEX 00 04:33:38
    INDEX 01 04:33:47
  TRACK 04 AUDIO
    TITLE "Wolfen (Das Tier in mir) (Deutsche Synchronstimme: Jack Nicholson)"
    PERFORMER "E Nomine"
    INDEX 01 05:03:02
  TRACK 05 AUDIO
    TITLE "Reise nach Transsilvanien Interlude"
    PERFORMER "E Nomine"
    INDEX 01 09:43:13
  TRACK 06 AUDIO
    TITLE "Draculґs Bluthochzeit (Deutsche Synchronstimme: Gary Oldmann)"
    PERFORMER "E Nomine"
    INDEX 01 10:06:26
  TRACK 07 AUDIO
    TITLE "Die Offenbarung Interlude"
    PERFORMER "E Nomine"
    INDEX 01 16:04:39
  TRACK 08 AUDIO
    TITLE "Sйance (Deutsche Synchronstimme: Bruce Willis)"
    PERFORMER "E Nomine"
    INDEX 01 16:28:27
  TRACK 09 AUDIO
    TITLE "Die Bedrohung Interlude"
    PERFORMER "E Nomine"
    INDEX 01 20:54:40
  TRACK 10 AUDIO
    TITLE "Das Bцse (Deutsche Synchronstimme: Samuel L. Jackson)"
    PERFORMER "E Nomine"
    INDEX 01 21:12:28
  TRACK 11 AUDIO
    TITLE "Die Suche Interlude"
    PERFORMER "E Nomine"
    INDEX 01 25:13:12
  TRACK 12 AUDIO
    TITLE "Die schwarzen Reiter (Deutsche Synchronstimme: Anthony Hopkins)"
    PERFORMER "E Nomine"
    INDEX 01 25:44:52
  TRACK 13 AUDIO
    TITLE "Die Verlautbarung Interlude"
    PERFORMER "E Nomine"
    INDEX 01 30:27:38
  TRACK 14 AUDIO
    TITLE "Zorn Die 12 Verbotenen Tцne (Deutsche Synchronstimme: Oliver Reed)"
    PERFORMER "E Nomine"
    INDEX 01 31:12:70
  TRACK 15 AUDIO
    TITLE "Hexenein * Eins Interlude"
    PERFORMER "E Nomine"
    INDEX 01 35:00:04
  TRACK 16 AUDIO
    TITLE "Hexenjagd (Deutsche Synchronstimme: Anthony Hopkins)"
    PERFORMER "E Nomine"
    INDEX 00 35:32:70
    INDEX 01 35:48:41
  TRACK 17 AUDIO
    TITLE "Das Unheil Interlude"
    PERFORMER "E Nomine"
    INDEX 01 39:45:38
  TRACK 18 AUDIO
    TITLE "Der Exorzist (Deutsche Synchronstimme: Al Pacino)"
    PERFORMER "E Nomine"
    INDEX 01 40:14:05
  TRACK 19 AUDIO
    TITLE "Der Tod Interlude"
    PERFORMER "E Nomine"
    INDEX 00 44:54:56
    INDEX 01 44:55:02
  TRACK 20 AUDIO
    TITLE "Herr der Schatten (Deutsche Synchronstimme: Oliver Reed)"
    PERFORMER "E Nomine"
    INDEX 01 45:21:61
  TRACK 21 AUDIO
    TITLE "Der Ahnungsschauer Interlude"
    PERFORMER "E Nomine"
    INDEX 01 49:27:17
  TRACK 22 AUDIO
    TITLE "Angst (Deutsche Synchronstimme: Anthony Perkins/Michael Caine)"
    PERFORMER "E Nomine"
    INDEX 01 49:56:26
  TRACK 23 AUDIO
    TITLE "Der Schrei Interlude"
    PERFORMER "E Nomine"
    INDEX 01 54:48:42
  TRACK 24 AUDIO
    TITLE "Exitus (Deutsche Synchronstimme: John Malkovic)"
    PERFORMER "E Nomine"
    INDEX 01 55:25:42
  TRACK 25 AUDIO
    TITLE "Das Schweigen Interlude"
    PERFORMER "E Nomine"
    INDEX 01 58:54:08
  TRACK 26 AUDIO
    TITLE "Die Nachtwache (Deutsche Synchronstimme: Anthony Perkins/Michael Caine)"
    PERFORMER "E Nomine"
    INDEX 01 59:36:26
  TRACK 27 AUDIO
    TITLE "Die Stimme ... Interlude"
    PERFORMER "E Nomine"
    INDEX 00 64:48:02
    INDEX 01 64:48:12
  TRACK 28 AUDIO
    TITLE "Aus dem Jenseits (Deutsche Synchronstimme: Nicholas Cage)"
    PERFORMER "E Nomine"
    INDEX 01 65:17:39
Код:
-----------------------
DON'T MODIFY THIS FILE
-----------------------
PERFORMER: auCDtect Task Manager, ver. 1.5.1RC4 build 1.5.1.5
Copyright (c) 2008-2010 y-soft. All rights reserved
[url=http://y-soft.org]http://y-soft.org[/url]
ANALYZER: auCDtect: CD records authenticity detector, version 0.8.2
Copyright (c) 2004 Oleg Berngardt. All rights reserved.
Copyright (c) 2004 Alexander Djourik. All rights reserved.
FILE: E Nomine - Finsternis.flac
  Size: 499362215 Hash: B0AF4503085CD7066CF9282EE533E5D8 Accuracy: -m0
  Conclusion: CDDA 100%
  Signature: 4506BFE1804F313C09CDAB4F3A80BA51AFEE58A9
Доп. информация: Matrix Number: 5895362 01 6
http://www.discogs.com/E-Nomine-Finsternis/release/230902
E Nomine (от лат. «In nomine» — «Во имя») — электронный музыкальный проект из Германии. E Nomine объединяет католические молитвы и песнопения с современной электронной музыкой.
Проект был создан Кристианом Веллером и Фридрихом Гранером, композиторами и продюсерами в области электронной музыки. По примеру проектов Enigma и Era, они совместили грегорианские хоры с электронной музыкой. От своих аналогов по жанру E Nomine отличалось более жесткой и ритмичной электронной основой. Поверх записи был наложен текст, читаемый актёром Кристианом Брюкнером. Эти тексты представляют собой религиозные рассуждения и цитаты из Библии.
Conductor [Choir], Recorded By [Choir] – Daniel Lüdtke, Wolfgang Mayer
Executive Producer – Chris Weller, David Brunner, Fritz Graner
Producer [Additional], Programmed By [Additional], Mixed By [Additional] – Chris Zippl*, Hendrik Eilers*, Jeo, Kay D.*, Stefan Knauthe
Producer [Additional], Programmed By [Additional], Mixed By [Additional], Conductor [Choir] – Holly Trance
Producer [Additional], Programmed By [Additional], Mixed By [Additional], Conductor [Orchestra, Choir], Recorded By [Choir] – Wolf Kerschek
Producer, Arranged By, Programmed By, Mixed By, Arranged By [Choir] – Chris Tentum, Sirfritz
Vocals – Christian Brückner, Eckart Dux, Frank Glaubrecht, Helmut Krauss, Joachim Kerzel, Joachim Tennstedt, Manfred Lehmann, Martin Kessler, Michael Chevalier, Rolf Schult
Vocals [Solist] – Johanna Von Orleans, Marten Rosenbaum
Written By – Chris Tentum, Sirfritz
Правила, инструкции, FAQ!!!
Торрент  Добавлен [26 июн 2020, 20:34] Скачать торрент Магнет ссылка
Скачать торрент
[ Размер 19.45 КБ / Просмотров 12 ]

Статус
Проверен 
 
Размер  476.64 МБ
Приватный: Нет (DHT включён)
.torrent скачан  0
 


     Отправить личное сообщение
   
Страница 1 из 1
Показать сообщения за:  Поле сортировки  
Начать новую тему Ответить на тему


Сейчас этот форум просматривают: нет зарегистрированных пользователей и гости: 0


Вы не можете начинать темы
Вы не можете отвечать на сообщения
Вы не можете редактировать свои сообщения
Вы не можете удалять свои сообщения
Вы не можете добавлять вложения

Перейти:  
cron