Начать новую тему Ответить на тему
Статистика раздачи
Размер: 440.5 МБ | Добавлен: 26 мар 2019, 20:09 | Скачали: 2
Сидеров: 3  [0 байт/сек]    Личеров: 0  [0 байт/сек]
Пред. тема | След. тема 

Автор
Сообщение

СообщениеДобавлено: 26 мар 2019, 20:09 

Ответить с цитатой 

Rockets / Galactic Hits
Жанр: Electronic
Страна-производитель диска: Pirates?
Год издания диска: 2005
Издатель (лейбл): Decca Studios
Номер по каталогу: 903 1 77359-2
Страна: France
Аудио кодек: APE (*.ape)
Тип рипа: tracks+.cue
Битрейт аудио: lossless
Продолжительность: 01:09:15
Источник (релизер): собственный релиз
Наличие сканов в содержимом раздачи: да
Треклист:
01 - Galactica
02 - Astral World
03 - If You Drive
04 - Radio Station
05 - Electric Delight
06 - Future Game
07 - Radiate
08 - Atomic
09 - Imagine E.S.P
10 - One More Mission
11 - Cosmic Feeling
12 - Legion Of Aliens
13 - Anastasis
14 - Atlantis Town
15 - Run To The Stars
16 - Back To Your Planet
Код:
Exact Audio Copy V0.99 prebeta 5 from 4. May 2009
EAC extraction logfile from 26. May 2011, 10:24
Rockets / Galactic Hits
Used drive  : Optiarc DVD RW AD-7200S   Adapter: 3  ID: 0
Read mode               : Secure
Utilize accurate stream : Yes
Defeat audio cache      : Yes
Make use of C2 pointers : No
Read offset correction                      : 48
Overread into Lead-In and Lead-Out          : No
Fill up missing offset samples with silence : Yes
Delete leading and trailing silent blocks   : No
Null samples used in CRC calculations       : Yes
Used interface                              : Installed external ASPI interface
Gap handling                                : Appended to previous track
Used output format : Internal WAV Routines
Sample format      : 44.100 Hz; 16 Bit; Stereo
TOC of the extracted CD
     Track |   Start  |  Length  | Start sector | End sector
    ---------------------------------------------------------
        1  |  0:00.00 |  4:39.39 |         0    |    20963
        2  |  4:39.39 |  3:56.22 |     20964    |    38685
        3  |  8:35.61 |  4:47.02 |     38686    |    60212
        4  | 13:22.63 |  5:23.64 |     60213    |    84501
        5  | 18:46.52 |  4:39.43 |     84502    |   105469
        6  | 23:26.20 |  4:50.69 |    105470    |   127288
        7  | 28:17.14 |  4:40.08 |    127289    |   148296
        8  | 32:57.22 |  4:04.29 |    148297    |   166625
        9  | 37:01.51 |  5:00.01 |    166626    |   189126
       10  | 42:01.52 |  4:16.35 |    189127    |   208361
       11  | 46:18.12 |  5:48.71 |    208362    |   234532
       12  | 52:07.08 |  3:36.70 |    234533    |   250802
       13  | 55:44.03 |  4:35.42 |    250803    |   271469
       14  | 60:19.45 |  4:15.20 |    271470    |   290614
       15  | 64:34.65 |  4:40.23 |    290615    |   311637
       16  | 69:15.13 |  3:59.11 |    311638    |   329573
Track  1
     Filename C:\Users\Admin\Desktop\Rockets_2005_Galactic Hits\01. Rockets – Galactica.wav
     Pre-gap length  0:00:02.00
     Peak level 85.7 %
     Track quality 100.0 %
     Test CRC E28F50C9
     Copy CRC E28F50C9
     Track not present in AccurateRip database
     Copy OK
Track  2
     Filename C:\Users\Admin\Desktop\Rockets_2005_Galactic Hits\02. Rockets – Astral World.wav
     Peak level 100.0 %
     Track quality 100.0 %
     Test CRC F863D451
     Copy CRC F863D451
     Track not present in AccurateRip database
     Copy OK
Track  3
     Filename C:\Users\Admin\Desktop\Rockets_2005_Galactic Hits\03. Rockets – If You Drive.wav
     Peak level 100.0 %
     Track quality 100.0 %
     Test CRC 7CFCFE31
     Copy CRC 7CFCFE31
     Track not present in AccurateRip database
     Copy OK
Track  4
     Filename C:\Users\Admin\Desktop\Rockets_2005_Galactic Hits\04. Rockets – Radio Station.wav
     Peak level 100.0 %
     Track quality 100.0 %
     Test CRC FCF878C3
     Copy CRC FCF878C3
     Track not present in AccurateRip database
     Copy OK
Track  5
     Filename C:\Users\Admin\Desktop\Rockets_2005_Galactic Hits\05. Rockets – Electric Delight.wav
     Peak level 95.4 %
     Track quality 99.9 %
     Test CRC 60EACB42
     Copy CRC 60EACB42
     Track not present in AccurateRip database
     Copy OK
Track  6
     Filename C:\Users\Admin\Desktop\Rockets_2005_Galactic Hits\06. Rockets – Future Game.wav
     Peak level 90.4 %
     Track quality 100.0 %
     Test CRC E582B25A
     Copy CRC E582B25A
     Track not present in AccurateRip database
     Copy OK
Track  7
     Filename C:\Users\Admin\Desktop\Rockets_2005_Galactic Hits\07. Rockets – Radiate.wav
     Peak level 89.1 %
     Track quality 100.0 %
     Test CRC 50C46826
     Copy CRC 50C46826
     Track not present in AccurateRip database
     Copy OK
Track  8
     Filename C:\Users\Admin\Desktop\Rockets_2005_Galactic Hits\08. Rockets – Atomic.wav
     Peak level 98.9 %
     Track quality 99.9 %
     Test CRC D3956004
     Copy CRC D3956004
     Track not present in AccurateRip database
     Copy OK
Track  9
     Filename C:\Users\Admin\Desktop\Rockets_2005_Galactic Hits\09. Rockets – Imagine E.S.P..wav
     Peak level 100.0 %
     Track quality 100.0 %
     Test CRC D722E52D
     Copy CRC D722E52D
     Track not present in AccurateRip database
     Copy OK
Track 10
     Filename C:\Users\Admin\Desktop\Rockets_2005_Galactic Hits\10. Rockets – One More Mission.wav
     Peak level 92.1 %
     Track quality 99.7 %
     Test CRC 12CCE717
     Copy CRC 1950F9C9
     Track not present in AccurateRip database
     Copy OK
Track 11
     Filename C:\Users\Admin\Desktop\Rockets_2005_Galactic Hits\11. Rockets – Cosmic Feeling.wav
     Peak level 94.8 %
     Track quality 99.8 %
     Test CRC 4D694FF5
     Copy CRC 4D694FF5
     Track not present in AccurateRip database
     Copy OK
Track 12
     Filename C:\Users\Admin\Desktop\Rockets_2005_Galactic Hits\12. Rockets – Legion Of Aliens.wav
     Peak level 46.9 %
     Track quality 100.0 %
     Test CRC 693D9B44
     Copy CRC 693D9B44
     Track not present in AccurateRip database
     Copy OK
Track 13
     Filename C:\Users\Admin\Desktop\Rockets_2005_Galactic Hits\13. Rockets – Anastasis.wav
     Peak level 96.6 %
     Track quality 100.0 %
     Test CRC 3D5D913E
     Copy CRC 3D5D913E
     Track not present in AccurateRip database
     Copy OK
Track 14
     Filename C:\Users\Admin\Desktop\Rockets_2005_Galactic Hits\14. Rockets – Atlantis Town.wav
     Peak level 89.4 %
     Track quality 100.0 %
     Test CRC A7D71CD6
     Copy CRC A7D71CD6
     Track not present in AccurateRip database
     Copy OK
Track 15
     Filename C:\Users\Admin\Desktop\Rockets_2005_Galactic Hits\15. Rockets – Run To The Stars.wav
     Peak level 99.2 %
     Track quality 100.0 %
     Test CRC 04BEA231
     Copy CRC 04BEA231
     Track not present in AccurateRip database
     Copy OK
Track 16
     Filename C:\Users\Admin\Desktop\Rockets_2005_Galactic Hits\16. Rockets – Back To Your Planet.wav
     Peak level 100.0 %
     Track quality 99.7 %
     Test CRC F4F5DEC8
     Copy CRC F4F5DEC8
     Track not present in AccurateRip database
     Copy OK
None of the tracks are present in the AccurateRip database
No errors occurred
End of status report
Код:
REM GENRE Electronic
REM DATE 2005
REM DISCID EC112A10
REM COMMENT "ExactAudioCopy v0.99pb5"
PERFORMER "Rockets"
TITLE "Galactic Hits"
FILE "01. Rockets – Galactica.wav" WAVE
  TRACK 01 AUDIO
    TITLE "Galactica"
    PERFORMER "Rockets"
    INDEX 01 00:00:00
FILE "02. Rockets – Astral World.wav" WAVE
  TRACK 02 AUDIO
    TITLE "Astral World"
    PERFORMER "Rockets"
    INDEX 01 00:00:00
FILE "03. Rockets – If You Drive.wav" WAVE
  TRACK 03 AUDIO
    TITLE "If You Drive"
    PERFORMER "Rockets"
    INDEX 01 00:00:00
FILE "04. Rockets – Radio Station.wav" WAVE
  TRACK 04 AUDIO
    TITLE "Radio Station"
    PERFORMER "Rockets"
    INDEX 01 00:00:00
FILE "05. Rockets – Electric Delight.wav" WAVE
  TRACK 05 AUDIO
    TITLE "Electric Delight"
    PERFORMER "Rockets"
    INDEX 01 00:00:00
FILE "06. Rockets – Future Game.wav" WAVE
  TRACK 06 AUDIO
    TITLE "Future Game"
    PERFORMER "Rockets"
    INDEX 01 00:00:00
FILE "07. Rockets – Radiate.wav" WAVE
  TRACK 07 AUDIO
    TITLE "Radiate"
    PERFORMER "Rockets"
    INDEX 01 00:00:00
FILE "08. Rockets – Atomic.wav" WAVE
  TRACK 08 AUDIO
    TITLE "Atomic"
    PERFORMER "Rockets"
    INDEX 01 00:00:00
FILE "09. Rockets – Imagine E.S.P..wav" WAVE
  TRACK 09 AUDIO
    TITLE "Imagine E.S.P."
    PERFORMER "Rockets"
    INDEX 01 00:00:00
FILE "10. Rockets – One More Mission.wav" WAVE
  TRACK 10 AUDIO
    TITLE "One More Mission"
    PERFORMER "Rockets"
    INDEX 01 00:00:00
FILE "11. Rockets – Cosmic Feeling.wav" WAVE
  TRACK 11 AUDIO
    TITLE "Cosmic Feeling"
    PERFORMER "Rockets"
    INDEX 01 00:00:00
FILE "12. Rockets – Legion Of Aliens.wav" WAVE
  TRACK 12 AUDIO
    TITLE "Legion Of Aliens"
    PERFORMER "Rockets"
    INDEX 01 00:00:00
FILE "13. Rockets – Anastasis.wav" WAVE
  TRACK 13 AUDIO
    TITLE "Anastasis"
    PERFORMER "Rockets"
    INDEX 01 00:00:00
FILE "14. Rockets – Atlantis Town.wav" WAVE
  TRACK 14 AUDIO
    TITLE "Atlantis Town"
    PERFORMER "Rockets"
    INDEX 01 00:00:00
FILE "15. Rockets – Run To The Stars.wav" WAVE
  TRACK 15 AUDIO
    TITLE "Run To The Stars"
    PERFORMER "Rockets"
    INDEX 01 00:00:00
FILE "16. Rockets – Back To Your Planet.wav" WAVE
  TRACK 16 AUDIO
    TITLE "Back To Your Planet"
    PERFORMER "Rockets"
    INDEX 01 00:00:00
Правила, инструкции, FAQ!!!
Торрент  Добавлен [26 мар 2019, 20:09] Скачать торрент Магнет ссылка
Скачать торрент
[ Размер 18.93 КБ / Просмотров 13 ]

Статус
Проверен 
 
Размер  440.5 МБ
Приватный: Нет (DHT включён)
.torrent скачан  2
 


     Отправить личное сообщение
   
Страница 1 из 1
Показать сообщения за:  Поле сортировки  
Начать новую тему Ответить на тему


Сейчас этот форум просматривают: нет зарегистрированных пользователей и гости: 0


Вы не можете начинать темы
Вы не можете отвечать на сообщения
Вы не можете редактировать свои сообщения
Вы не можете удалять свои сообщения
Вы не можете добавлять вложения

Перейти:  
cron