Начать новую тему Ответить на тему
Статистика раздачи
Размер: 303.38 МБ | Добавлен: 26 июн 2020, 19:56 | Скачали: 0
Сидеров: 0  [0 байт/сек]    Личеров: 0  [0 байт/сек]
Пред. тема | След. тема 

Автор
Сообщение

СообщениеДобавлено: 26 июн 2020, 19:56 

Ответить с цитатой 

Mindless Self Indulgence / How I Learned To Stop Giving A Shit And Love Mindless Self Indulgence
Жанр: Electronic, Rock, Industrial
Год издания: 2013
Издатель (лейбл): Uppity Cracker
Страна: США
Аудиокодек: FLAC (*.flac)
Тип рипа: tracks+.cue
Битрейт аудио: lossless
Продолжительность: 38:49
Источник (релизер): RoaringintheDark @ WhatCD
Наличие сканов в содержимом раздачи: нет
Треклист:
01 Witness
02 Fuck Machine
03 It Gets Worse
04 I Want to Be Black
05 Hey Tomorrow Fuck You and Your Friend Yesterday
06 You're No Fun Anymore Mark Trezona
07 Ala Mode
08 Casio
09 Anonymous
10 Kill You All in a Hip Hop Rage
11 Stalkers (Slit My Wrists)
12 Jack You Up
13 Ass Backwards
14 Sex for Homework
Код:
X Lossless Decoder version 20130407 (143.0)
XLD extraction logfile from 2013-04-20 12:17:07 -0400
Mindless Self Indulgence / How I Learned to Stop Giving a Shit and Love Mindless Self Indulgence
Used drive : HL-DT-ST DVDRAM GE24NU30 (revision NT00)
Media type : Pressed CD
Ripper mode             : XLD Secure Ripper
Disable audio cache     : OK for the drive with a cache less than 1375KiB
Make use of C2 pointers : NO
Read offset correction  : 667
Max retry count         : 100
Gap status              : Analyzed, Appended
TOC of the extracted CD
     Track |   Start  |  Length  | Start sector | End sector
    ---------------------------------------------------------
        1  | 00:00:00 | 03:16:74 |         0    |    14773
        2  | 03:16:74 | 03:24:29 |     14774    |    30102
        3  | 06:41:28 | 02:56:28 |     30103    |    43330
        4  | 09:37:56 | 02:09:63 |     43331    |    53068
        5  | 11:47:44 | 02:40:18 |     53069    |    65086
        6  | 14:27:62 | 02:53:23 |     65087    |    78084
        7  | 17:21:10 | 02:32:15 |     78085    |    89499
        8  | 19:53:25 | 02:14:24 |     89500    |    99573
        9  | 22:07:49 | 02:03:22 |     99574    |   108820
       10  | 24:10:71 | 02:29:48 |    108821    |   120043
       11  | 26:40:44 | 02:39:06 |    120044    |   131974
       12  | 29:19:50 | 03:33:59 |    131975    |   148008
       13  | 32:53:34 | 02:55:34 |    148009    |   161167
       14  | 35:48:68 | 03:14:04 |    161168    |   175721
AccurateRip Summary
    Disc not found in AccurateRip DB.
All Tracks
    Album gain               : -9.98 dB
    Peak                     : 0.987274
    Statistics
        Read error                           : 0
        Jitter error (maybe fixed)           : 0
        Retry sector count                   : 0
        Damaged sector count                 : 0
Track 01
    Filename : /Volumes/PINEAPPLE ARMY/Uploads/FLAC/Mindless Self Indulgence - How I Learned… [CD] [FLAC]/01 Witness.flac
    Pre-gap length : 00:02:00
    Track gain               : -10.97 dB
    Peak                     : 0.987274
    CRC32 hash (test run)    : ED8BD2D0
    CRC32 hash               : ED8BD2D0
    CRC32 hash (skip zero)   : 5129E816
    AccurateRip v1 signature : 03A60E3D
    AccurateRip v2 signature : 1E57A7CB
        ->Track not present in AccurateRip database.
    Statistics
        Read error                           : 0
        Jitter error (maybe fixed)           : 0
        Retry sector count                   : 0
        Damaged sector count                 : 0
Track 02
    Filename : /Volumes/PINEAPPLE ARMY/Uploads/FLAC/Mindless Self Indulgence - How I Learned… [CD] [FLAC]/02 Fuck Machine.flac
    Track gain               : -9.52 dB
    Peak                     : 0.987274
    CRC32 hash (test run)    : 4F7B8403
    CRC32 hash               : 4F7B8403
    CRC32 hash (skip zero)   : 05756491
    AccurateRip v1 signature : DCEDA717
    AccurateRip v2 signature : A4DBCE4C
        ->Track not present in AccurateRip database.
    Statistics
        Read error                           : 0
        Jitter error (maybe fixed)           : 0
        Retry sector count                   : 0
        Damaged sector count                 : 0
Track 03
    Filename : /Volumes/PINEAPPLE ARMY/Uploads/FLAC/Mindless Self Indulgence - How I Learned… [CD] [FLAC]/03 It Gets Worse.flac
    Track gain               : -9.83 dB
    Peak                     : 0.987274
    CRC32 hash (test run)    : B2174435
    CRC32 hash               : B2174435
    CRC32 hash (skip zero)   : 1C881F21
    AccurateRip v1 signature : 76865F01
    AccurateRip v2 signature : A8B3125D
        ->Track not present in AccurateRip database.
    Statistics
        Read error                           : 0
        Jitter error (maybe fixed)           : 0
        Retry sector count                   : 0
        Damaged sector count                 : 0
Track 04
    Filename : /Volumes/PINEAPPLE ARMY/Uploads/FLAC/Mindless Self Indulgence - How I Learned… [CD] [FLAC]/04 I Want to Be Black.flac
    Track gain               : -9.65 dB
    Peak                     : 0.987244
    CRC32 hash (test run)    : E94D394D
    CRC32 hash               : E94D394D
    CRC32 hash (skip zero)   : 1F50C798
    AccurateRip v1 signature : D7171E0D
    AccurateRip v2 signature : 1BC2EC0B
        ->Track not present in AccurateRip database.
    Statistics
        Read error                           : 0
        Jitter error (maybe fixed)           : 0
        Retry sector count                   : 0
        Damaged sector count                 : 0
Track 05
    Filename : /Volumes/PINEAPPLE ARMY/Uploads/FLAC/Mindless Self Indulgence - How I Learned… [CD] [FLAC]/05 Hey Tomorrow Fuck You and Your Friend Yesterday.flac
    Track gain               : -10.28 dB
    Peak                     : 0.987274
    CRC32 hash (test run)    : 88ACD0DC
    CRC32 hash               : 88ACD0DC
    CRC32 hash (skip zero)   : CB7F0D35
    AccurateRip v1 signature : 57CA0451
    AccurateRip v2 signature : BB1AAA95
        ->Track not present in AccurateRip database.
    Statistics
        Read error                           : 0
        Jitter error (maybe fixed)           : 0
        Retry sector count                   : 0
        Damaged sector count                 : 0
Track 06
    Filename : /Volumes/PINEAPPLE ARMY/Uploads/FLAC/Mindless Self Indulgence - How I Learned… [CD] [FLAC]/06 You're No Fun Anymore Mark Trezona.flac
    Track gain               : -9.62 dB
    Peak                     : 0.987274
    CRC32 hash (test run)    : 4FF3A2F1
    CRC32 hash               : 4FF3A2F1
    CRC32 hash (skip zero)   : BEDB7E89
    AccurateRip v1 signature : 75AF63CF
    AccurateRip v2 signature : A2B189A8
        ->Track not present in AccurateRip database.
    Statistics
        Read error                           : 0
        Jitter error (maybe fixed)           : 0
        Retry sector count                   : 0
        Damaged sector count                 : 0
Track 07
    Filename : /Volumes/PINEAPPLE ARMY/Uploads/FLAC/Mindless Self Indulgence - How I Learned… [CD] [FLAC]/07 Ala Mode.flac
    Track gain               : -9.89 dB
    Peak                     : 0.987274
    CRC32 hash (test run)    : 9A80A983
    CRC32 hash               : 9A80A983
    CRC32 hash (skip zero)   : E27DF730
    AccurateRip v1 signature : CAF77B59
    AccurateRip v2 signature : F63C4885
        ->Track not present in AccurateRip database.
    Statistics
        Read error                           : 0
        Jitter error (maybe fixed)           : 0
        Retry sector count                   : 0
        Damaged sector count                 : 0
Track 08
    Filename : /Volumes/PINEAPPLE ARMY/Uploads/FLAC/Mindless Self Indulgence - How I Learned… [CD] [FLAC]/08 Casio.flac
    Track gain               : -9.59 dB
    Peak                     : 0.987274
    CRC32 hash (test run)    : 32865F1E
    CRC32 hash               : 32865F1E
    CRC32 hash (skip zero)   : 4177AB94
    AccurateRip v1 signature : C6036779
    AccurateRip v2 signature : 0B13D054
        ->Track not present in AccurateRip database.
    Statistics
        Read error                           : 0
        Jitter error (maybe fixed)           : 0
        Retry sector count                   : 0
        Damaged sector count                 : 0
Track 09
    Filename : /Volumes/PINEAPPLE ARMY/Uploads/FLAC/Mindless Self Indulgence - How I Learned… [CD] [FLAC]/09 Anonymous.flac
    Track gain               : -10.29 dB
    Peak                     : 0.987244
    CRC32 hash (test run)    : 69CFAB8F
    CRC32 hash               : 69CFAB8F
    CRC32 hash (skip zero)   : 832D7BB2
    AccurateRip v1 signature : FEC56FD1
    AccurateRip v2 signature : A50C7854
        ->Track not present in AccurateRip database.
    Statistics
        Read error                           : 0
        Jitter error (maybe fixed)           : 0
        Retry sector count                   : 0
        Damaged sector count                 : 0
Track 10
    Filename : /Volumes/PINEAPPLE ARMY/Uploads/FLAC/Mindless Self Indulgence - How I Learned… [CD] [FLAC]/10 Kill You All in a Hip Hop Rage.flac
    Track gain               : -10.10 dB
    Peak                     : 0.987244
    CRC32 hash (test run)    : 1A89FED8
    CRC32 hash               : 1A89FED8
    CRC32 hash (skip zero)   : 654E3BF8
    AccurateRip v1 signature : 48FCAF35
    AccurateRip v2 signature : 9E586F09
        ->Track not present in AccurateRip database.
    Statistics
        Read error                           : 0
        Jitter error (maybe fixed)           : 0
        Retry sector count                   : 0
        Damaged sector count                 : 0
Track 11
    Filename : /Volumes/PINEAPPLE ARMY/Uploads/FLAC/Mindless Self Indulgence - How I Learned… [CD] [FLAC]/11 Stalkers (Slit My Wrists).flac
    Track gain               : -9.69 dB
    Peak                     : 0.987274
    CRC32 hash (test run)    : 938DEB22
    CRC32 hash               : 938DEB22
    CRC32 hash (skip zero)   : D58166C0
    AccurateRip v1 signature : 70F3C26A
    AccurateRip v2 signature : E16BD4BA
        ->Track not present in AccurateRip database.
    Statistics
        Read error                           : 0
        Jitter error (maybe fixed)           : 0
        Retry sector count                   : 0
        Damaged sector count                 : 0
Track 12
    Filename : /Volumes/PINEAPPLE ARMY/Uploads/FLAC/Mindless Self Indulgence - How I Learned… [CD] [FLAC]/12 Jack You Up.flac
    Track gain               : -8.59 dB
    Peak                     : 0.987244
    CRC32 hash (test run)    : F262A96E
    CRC32 hash               : F262A96E
    CRC32 hash (skip zero)   : 3D4F4E36
    AccurateRip v1 signature : 002C223B
    AccurateRip v2 signature : 8F683DF5
        ->Track not present in AccurateRip database.
    Statistics
        Read error                           : 0
        Jitter error (maybe fixed)           : 0
        Retry sector count                   : 0
        Damaged sector count                 : 0
Track 13
    Filename : /Volumes/PINEAPPLE ARMY/Uploads/FLAC/Mindless Self Indulgence - How I Learned… [CD] [FLAC]/13 Ass Backwards.flac
    Track gain               : -9.39 dB
    Peak                     : 0.987244
    CRC32 hash (test run)    : 5BF2FC39
    CRC32 hash               : 5BF2FC39
    CRC32 hash (skip zero)   : A508DC13
    AccurateRip v1 signature : 26A868B6
    AccurateRip v2 signature : 3BE21F28
        ->Track not present in AccurateRip database.
    Statistics
        Read error                           : 0
        Jitter error (maybe fixed)           : 0
        Retry sector count                   : 0
        Damaged sector count                 : 0
Track 14
    Filename : /Volumes/PINEAPPLE ARMY/Uploads/FLAC/Mindless Self Indulgence - How I Learned… [CD] [FLAC]/14 Sex for Homework.flac
    Track gain               : -9.27 dB
    Peak                     : 0.987213
    CRC32 hash (test run)    : FCBD17AA
    CRC32 hash               : FCBD17AA
    CRC32 hash (skip zero)   : 4050D66C
    AccurateRip v1 signature : 63E39A08
    AccurateRip v2 signature : D32F4932
        ->Track not present in AccurateRip database.
    Statistics
        Read error                           : 0
        Jitter error (maybe fixed)           : 0
        Retry sector count                   : 0
        Damaged sector count                 : 0
No errors occurred
End of status report
Код:
TITLE "How I Learned to Stop Giving a Shit and Love Mindless Self Indulgence"
PERFORMER "Mindless Self Indulgence"
CATALOG 0782388986724
REM GENRE "Industrial"
REM DATE "2013"
REM DISCNUMBER 1
REM TOTALDISCS 1
REM DISCID C009260E
REM REPLAYGAIN_ALBUM_GAIN -9.98 dB
REM REPLAYGAIN_ALBUM_PEAK 0.987274
FILE "01 Witness.flac" WAVE
  TRACK 01 AUDIO
    TITLE "Witness"
    SONGWRITER "Chantal Claret & James Euringer"
    ISRC US57M1386901
    REM REPLAYGAIN_TRACK_GAIN -10.97 dB
    REM REPLAYGAIN_TRACK_PEAK 0.987274
    INDEX 01 00:00:00
FILE "02 Fuck Machine.flac" WAVE
  TRACK 02 AUDIO
    TITLE "Fuck Machine"
    SONGWRITER "James Euringer"
    ISRC US57M1386902
    REM REPLAYGAIN_TRACK_GAIN -9.52 dB
    REM REPLAYGAIN_TRACK_PEAK 0.987274
    INDEX 01 00:00:00
FILE "03 It Gets Worse.flac" WAVE
  TRACK 03 AUDIO
    TITLE "It Gets Worse"
    SONGWRITER "James Euringer"
    ISRC US57M1386903
    REM REPLAYGAIN_TRACK_GAIN -9.83 dB
    REM REPLAYGAIN_TRACK_PEAK 0.987274
    INDEX 01 00:00:00
FILE "04 I Want to Be Black.flac" WAVE
  TRACK 04 AUDIO
    TITLE "I Want to Be Black"
    SONGWRITER "James Euringer"
    ISRC US57M1386904
    REM REPLAYGAIN_TRACK_GAIN -9.65 dB
    REM REPLAYGAIN_TRACK_PEAK 0.987244
    INDEX 01 00:00:00
FILE "05 Hey Tomorrow Fuck You and Your Friend Yesterday.flac" WAVE
  TRACK 05 AUDIO
    TITLE "Hey Tomorrow Fuck You and Your Friend Yesterday"
    SONGWRITER "James Euringer"
    ISRC US57M1386905
    REM REPLAYGAIN_TRACK_GAIN -10.28 dB
    REM REPLAYGAIN_TRACK_PEAK 0.987274
    INDEX 01 00:00:00
FILE "06 You're No Fun Anymore Mark Trezona.flac" WAVE
  TRACK 06 AUDIO
    TITLE "You're No Fun Anymore Mark Trezona"
    SONGWRITER "Rhys Fulber & James Euringer"
    ISRC US57M1386906
    REM REPLAYGAIN_TRACK_GAIN -9.62 dB
    REM REPLAYGAIN_TRACK_PEAK 0.987274
    INDEX 01 00:00:00
FILE "07 Ala Mode.flac" WAVE
  TRACK 07 AUDIO
    TITLE "Ala Mode"
    SONGWRITER "James Euringer"
    ISRC US57M1386907
    REM REPLAYGAIN_TRACK_GAIN -9.89 dB
    REM REPLAYGAIN_TRACK_PEAK 0.987274
    INDEX 01 00:00:00
FILE "08 Casio.flac" WAVE
  TRACK 08 AUDIO
    TITLE "Casio"
    SONGWRITER "James Euringer"
    ISRC US57M1386908
    REM REPLAYGAIN_TRACK_GAIN -9.59 dB
    REM REPLAYGAIN_TRACK_PEAK 0.987274
    INDEX 01 00:00:00
FILE "09 Anonymous.flac" WAVE
  TRACK 09 AUDIO
    TITLE "Anonymous"
    SONGWRITER "James Euringer"
    ISRC US57M1386909
    REM REPLAYGAIN_TRACK_GAIN -10.29 dB
    REM REPLAYGAIN_TRACK_PEAK 0.987244
    INDEX 01 00:00:00
FILE "10 Kill You All in a Hip Hop Rage.flac" WAVE
  TRACK 10 AUDIO
    TITLE "Kill You All in a Hip Hop Rage"
    SONGWRITER "James Euringer"
    ISRC US57M1386910
    REM REPLAYGAIN_TRACK_GAIN -10.10 dB
    REM REPLAYGAIN_TRACK_PEAK 0.987244
    INDEX 01 00:00:00
FILE "11 Stalkers (Slit My Wrists).flac" WAVE
  TRACK 11 AUDIO
    TITLE "Stalkers (Slit My Wrists)"
    SONGWRITER "James Euringer"
    ISRC US57M1386911
    REM REPLAYGAIN_TRACK_GAIN -9.69 dB
    REM REPLAYGAIN_TRACK_PEAK 0.987274
    INDEX 01 00:00:00
FILE "12 Jack You Up.flac" WAVE
  TRACK 12 AUDIO
    TITLE "Jack You Up"
    SONGWRITER "James Euringer"
    ISRC US57M1386912
    REM REPLAYGAIN_TRACK_GAIN -8.59 dB
    REM REPLAYGAIN_TRACK_PEAK 0.987244
    INDEX 01 00:00:00
FILE "13 Ass Backwards.flac" WAVE
  TRACK 13 AUDIO
    TITLE "Ass Backwards"
    SONGWRITER "James Euringer"
    ISRC US57M1386913
    REM REPLAYGAIN_TRACK_GAIN -9.39 dB
    REM REPLAYGAIN_TRACK_PEAK 0.987244
    INDEX 01 00:00:00
FILE "14 Sex for Homework.flac" WAVE
  TRACK 14 AUDIO
    TITLE "Sex for Homework"
    SONGWRITER "James Euringer"
    ISRC US57M1386915
    REM REPLAYGAIN_TRACK_GAIN -9.27 dB
    REM REPLAYGAIN_TRACK_PEAK 0.987213
    INDEX 01 00:00:00
Правила, инструкции, FAQ!!!
Торрент  Добавлен [26 июн 2020, 19:56] Скачать торрент Магнет ссылка
Скачать торрент
[ Размер 7.36 КБ / Просмотров 8 ]

Статус
Проверен 
 
Размер  303.38 МБ
Приватный: Нет (DHT включён)
.torrent скачан  0
 


     Отправить личное сообщение
   
Страница 1 из 1
Показать сообщения за:  Поле сортировки  
Начать новую тему Ответить на тему


Сейчас этот форум просматривают: нет зарегистрированных пользователей и гости: 0


Вы не можете начинать темы
Вы не можете отвечать на сообщения
Вы не можете редактировать свои сообщения
Вы не можете удалять свои сообщения
Вы не можете добавлять вложения

Перейти:  
cron