Начать новую тему Ответить на тему
Статистика раздачи
Размер: 460.99 МБ | Добавлен: 26 июн 2020, 17:38 | Скачали: 0
Сидеров: 0  [0 байт/сек]    Личеров: 0  [0 байт/сек]
Пред. тема | След. тема 

Автор
Сообщение

СообщениеДобавлено: 26 июн 2020, 17:38 

Ответить с цитатой 

Newer Wave
Жанр: Electronic, Rock, Industrial, EBM
Носитель: CD
Страна-производитель диска (релиза): U.S.
Год издания: 1997
Издатель (лейбл): 21st Circuitry
Номер по каталогу: 21C.CD21
Аудиокодек: FLAC (*.flac)
Тип рипа: tracks+.cue
Битрейт аудио: lossless
Продолжительность: 01:09:36
Источник (релизер): what.cd, twitch451
Наличие сканов в содержимом раздачи: нет
Треклист:
1. 16 Volt - Turning Japanese
2. Assemblage 23 - I Ran
3. Beauty - Red Skies
4. Luxt - Cars
5. Out Out - Candy-O
6. Kevorkian Death Cycle - Never Say Never
7. Battery - The Chauffeur
8. Scar Tissue - Destination Unknown
9. Hate Dept. - Master and Servant
10. Black Metal Box - I Want Candy
11. Templebeat - You Spin Me Round
12. Collide - Whip It
13. Unit:187 - Relax
14. Sabotage Q.C.Q.C.? - Sex Dwarf
15. Acumen - Whisper to a Scream
Код:
Exact Audio Copy V0.99 prebeta 5 from 4. May 2009
EAC extraction logfile from 3. January 2010, 16:42
Various / Newer Wave
Used drive  : SONY    DVD RW DRU-500A   Adapter: 5  ID: 0
Read mode               : Secure
Utilize accurate stream : Yes
Defeat audio cache      : Yes
Make use of C2 pointers : No
Read offset correction                      : 120
Overread into Lead-In and Lead-Out          : No
Fill up missing offset samples with silence : Yes
Delete leading and trailing silent blocks   : No
Null samples used in CRC calculations       : Yes
Used interface                              : Native Win32 interface for Win NT & 2000
Gap handling                                : Appended to previous track
Used output format              : User Defined Encoder
Selected bitrate                : 320 kBit/s
Quality                         : High
Add ID3 tag                     : No
Command line compressor         : E:\audio\EAC\flac.exe
Additional command line options : -V -8 -T "artist=%a" -T "title=%t" -T "album=%g" -T "date=%y" -T "tracknumber=%n" -T "genre=%m" %s
TOC of the extracted CD
     Track |   Start  |  Length  | Start sector | End sector
    ---------------------------------------------------------
        1  |  0:00.00 |  4:45.45 |         0    |    21419
        2  |  4:45.45 |  3:53.45 |     21420    |    38939
        3  |  8:39.15 |  4:19.52 |     38940    |    58416
        4  | 12:58.67 |  4:33.18 |     58417    |    78909
        5  | 17:32.10 |  2:35.12 |     78910    |    90546
        6  | 20:07.22 |  5:28.48 |     90547    |   115194
        7  | 25:35.70 |  4:38.62 |    115195    |   136106
        8  | 30:14.57 |  4:59.05 |    136107    |   158536
        9  | 35:13.62 |  5:13.45 |    158537    |   182056
       10  | 40:27.32 |  5:43.15 |    182057    |   207796
       11  | 46:10.47 |  3:41.50 |    207797    |   224421
       12  | 49:52.22 |  3:31.25 |    224422    |   240271
       13  | 53:23.47 |  6:09.00 |    240272    |   267946
       14  | 59:32.47 |  4:26.28 |    267947    |   287924
       15  | 63:59.00 |  5:36.69 |    287925    |   313193
Track  1
     Filename E:\00.rips\VA-Newer_Wave-1997\01-16 Volt-Turning Japanese.wav
     Pre-gap length  0:00:02.00
     Peak level 91.1 %
     Track quality 99.9 %
     Test CRC 6B3BE101
     Copy CRC 6B3BE101
     Accurately ripped (confidence 4)  [CF57255E]
     Copy OK
Track  2
     Filename E:\00.rips\VA-Newer_Wave-1997\02-Assemblage 23-I Ran.wav
     Peak level 91.1 %
     Track quality 100.0 %
     Test CRC A05FB649
     Copy CRC A05FB649
     Accurately ripped (confidence 4)  [37FD1E69]
     Copy OK
Track  3
     Filename E:\00.rips\VA-Newer_Wave-1997\03-Beauty-Red Skies.wav
     Peak level 91.1 %
     Track quality 100.0 %
     Test CRC 33B57D64
     Copy CRC 33B57D64
     Accurately ripped (confidence 4)  [3A6EAD92]
     Copy OK
Track  4
     Filename E:\00.rips\VA-Newer_Wave-1997\04-Luxt-Cars.wav
     Peak level 91.1 %
     Track quality 100.0 %
     Test CRC C068E3C2
     Copy CRC C068E3C2
     Accurately ripped (confidence 5)  [F3BD819F]
     Copy OK
Track  5
     Filename E:\00.rips\VA-Newer_Wave-1997\05-Out Out-Candy-O.wav
     Pre-gap length  0:00:00.01
     Peak level 91.1 %
     Track quality 100.0 %
     Test CRC 3C65451E
     Copy CRC 3C65451E
     Accurately ripped (confidence 5)  [28FB2B60]
     Copy OK
Track  6
     Filename E:\00.rips\VA-Newer_Wave-1997\06-Kevorkian Death Cycle-Never Say Never.wav
     Peak level 91.1 %
     Track quality 100.0 %
     Test CRC 9D3BFA86
     Copy CRC 9D3BFA86
     Accurately ripped (confidence 5)  [C94059FD]
     Copy OK
Track  7
     Filename E:\00.rips\VA-Newer_Wave-1997\07-Battery-The Chauffeur.wav
     Peak level 89.9 %
     Track quality 100.0 %
     Test CRC 3426C782
     Copy CRC 3426C782
     Accurately ripped (confidence 5)  [A1943771]
     Copy OK
Track  8
     Filename E:\00.rips\VA-Newer_Wave-1997\08-Scar Tissue-Destination Unknown.wav
     Peak level 91.1 %
     Track quality 100.0 %
     Test CRC D685D101
     Copy CRC D685D101
     Accurately ripped (confidence 5)  [F5A57369]
     Copy OK
Track  9
     Filename E:\00.rips\VA-Newer_Wave-1997\09-Hate Dept.-Master And Servant.wav
     Peak level 91.1 %
     Track quality 100.0 %
     Test CRC 3C014E8A
     Copy CRC 3C014E8A
     Accurately ripped (confidence 5)  [80FC1A9E]
     Copy OK
Track 10
     Filename E:\00.rips\VA-Newer_Wave-1997\10-Black Metal Box-I Want Candy.wav
     Peak level 91.2 %
     Track quality 100.0 %
     Test CRC E56C61CD
     Copy CRC E56C61CD
     Accurately ripped (confidence 5)  [7AA31331]
     Copy OK
Track 11
     Filename E:\00.rips\VA-Newer_Wave-1997\11-Templebeat-You Spin Me Round.wav
     Peak level 91.1 %
     Track quality 100.0 %
     Test CRC 0D5D3E38
     Copy CRC 0D5D3E38
     Accurately ripped (confidence 5)  [1F923B7F]
     Copy OK
Track 12
     Filename E:\00.rips\VA-Newer_Wave-1997\12-Collide-Whip It.wav
     Peak level 91.2 %
     Track quality 100.0 %
     Test CRC EEBEAEF9
     Copy CRC EEBEAEF9
     Accurately ripped (confidence 5)  [570378C8]
     Copy OK
Track 13
     Filename E:\00.rips\VA-Newer_Wave-1997\13-Unit-187-Relax.wav
     Peak level 91.1 %
     Track quality 100.0 %
     Test CRC 9EE7E27A
     Copy CRC 9EE7E27A
     Accurately ripped (confidence 5)  [021AAB4F]
     Copy OK
Track 14
     Filename E:\00.rips\VA-Newer_Wave-1997\14-Sabotage - Qu 'Est - Que C'est -Sex Dwarf.wav
     Peak level 91.1 %
     Track quality 100.0 %
     Test CRC 3304645A
     Copy CRC 3304645A
     Accurately ripped (confidence 5)  [E60E4EA7]
     Copy OK
Track 15
     Filename E:\00.rips\VA-Newer_Wave-1997\15-Acumen-Whisper To A Scream.wav
     Peak level 91.1 %
     Track quality 99.9 %
     Test CRC 09F115A4
     Copy CRC 09F115A4
     Accurately ripped (confidence 4)  [B2697932]
     Copy OK
All tracks accurately ripped
No errors occurred
End of status report
Правила, инструкции, FAQ!!!
Торрент  Добавлен [26 июн 2020, 17:38] Скачать торрент Магнет ссылка
Скачать торрент
[ Размер 19.57 КБ / Просмотров 10 ]

Статус
Проверен 
 
Размер  460.99 МБ
Приватный: Нет (DHT включён)
.torrent скачан  0
 


     Отправить личное сообщение
   
Страница 1 из 1
Показать сообщения за:  Поле сортировки  
Начать новую тему Ответить на тему


Сейчас этот форум просматривают: нет зарегистрированных пользователей и гости: 0


Вы не можете начинать темы
Вы не можете отвечать на сообщения
Вы не можете редактировать свои сообщения
Вы не можете удалять свои сообщения
Вы не можете добавлять вложения

Перейти:  
cron