Начать новую тему Ответить на тему
Статистика раздачи
Размер: 930.36 МБ | Добавлен: 26 июн 2020, 20:06 | Скачали: 0
Сидеров: 0  [0 байт/сек]    Личеров: 0  [0 байт/сек]
Пред. тема | След. тема 

Автор
Сообщение

СообщениеДобавлено: 26 июн 2020, 20:06 

Ответить с цитатой 

Die Krupps - "I" (Reissue 2CD)
Жанр: Electronic, Rock, EBM, Heavy Metal, Industrial, Metal Machine Music
Год выпуска диска: 2008
Label: Synthetic Symphony
Catalog#: SPV 92672 2CD
Производитель диска: Germany
Аудио кодек: FLAC
Тип рипа: image+.cue
Битрейт аудио: lossless
Продолжительность: 56:32 + 66:07
Источник: Из собственной коллекции
Треклист:
The Alternative Album (Remixed 2008)1. High Tech/Low Life (3:17)
2. Metal Machine Music (5:17)
3. Doppelgдnger (5:03)
4. The Dawning of Doom (3:47)
5. Ministry of Fear (4:55)
6. One (4:56)
7. Simply say No (3:57)
8. Disciples of Discipline (4:11)
9. The Power (5:20)
10. Rings of Steel (3:37)
11. High Tech/Low Life (Non Guitar Version) (3:16)
12. Ministry of Fear (Non Guitar Version) (4:55)
13. Disciples of Discipline (Non Guitar Version) (3:53)

The Original Album (1992, Digitally Remastered)1. High Tech/Low Life (3:02)
2. Metal Machine Music (4:08)
3. Doppelgдnger (5:03)
4. The Dawning of Doom (3:46)
5. Ministry of Fear (5:02)
6. One (5:01)
7. Simply say No (3:56)
8. Disciples of Discipline (4:28)
9. The Power (5:18)
10. Rings of Steel (4:46)
11. Dr. Mabuse (Demo) (4:17)
12. Metal Machine Music (Demo) (3:49)
13. Doppelgдnger (Demo) (5:00)
14. Simply say No (Demo) (4:15)
15. The Power (Demo) (4:09)

Доп. информация: Диски из собственной коллекции, фотографии прилагаются.

Код:
Exact Audio Copy V0.99 prebeta 5 from 4. May 2009
EAC extraction logfile from 25. August 2010, 16:54
Die Krupps / I (The Alternative Album)
Used drive  : ASUS    DRW-22B2ST   Adapter: 4  ID: 0
Read mode               : Secure
Utilize accurate stream : Yes
Defeat audio cache      : Yes
Make use of C2 pointers : No
Read offset correction                      : 6
Overread into Lead-In and Lead-Out          : No
Fill up missing offset samples with silence : Yes
Delete leading and trailing silent blocks   : No
Null samples used in CRC calculations       : Yes
Used interface                              : Installed external ASPI interface
Used output format              : User Defined Encoder
Selected bitrate                : 128 kBit/s
Quality                         : High
Add ID3 tag                     : No
Command line compressor         : C:\Program Files\Exact Audio Copy\Flac\flac.exe
Additional command line options : -8 -V %s
TOC of the extracted CD
     Track |   Start  |  Length  | Start sector | End sector
    ---------------------------------------------------------
        1  |  0:00.00 |  3:17.39 |         0    |    14813
        2  |  3:17.39 |  5:17.46 |     14814    |    38634
        3  |  8:35.10 |  5:03.74 |     38635    |    61433
        4  | 13:39.09 |  3:47.15 |     61434    |    78473
        5  | 17:26.24 |  4:55.73 |     78474    |   100671
        6  | 22:22.22 |  4:56.22 |    100672    |   122893
        7  | 27:18.44 |  3:57.12 |    122894    |   140680
        8  | 31:15.56 |  4:11.50 |    140681    |   159555
        9  | 35:27.31 |  5:20.59 |    159556    |   183614
       10  | 40:48.15 |  3:37.51 |    183615    |   199940
       11  | 44:25.66 |  3:16.46 |    199941    |   214686
       12  | 47:42.37 |  4:55.67 |    214687    |   236878
       13  | 52:38.29 |  3:53.44 |    236879    |   254397
Range status and errors
Selected range
     Filename F:\!!!_output\EAC\Die Krupps - I (The Alternative Album)\Die Krupps - I (The Alternative Album).wav
     Peak level 96.6 %
     Range quality 100.0 %
     Test CRC FBBFAD90
     Copy CRC FBBFAD90
     Copy OK
No errors occurred
AccurateRip summary
Track  1  accurately ripped (confidence 2)  [85B0C63C]
Track  2  accurately ripped (confidence 2)  [BCB556F7]
Track  3  accurately ripped (confidence 2)  [EE884A63]
Track  4  accurately ripped (confidence 2)  [7688AB73]
Track  5  accurately ripped (confidence 2)  [379D8BD6]
Track  6  accurately ripped (confidence 2)  [C96EC7DC]
Track  7  accurately ripped (confidence 2)  [47561F90]
Track  8  accurately ripped (confidence 2)  [0669B07A]
Track  9  accurately ripped (confidence 2)  [E78B4B16]
Track 10  accurately ripped (confidence 2)  [9478CECB]
Track 11  accurately ripped (confidence 2)  [64FE7951]
Track 12  accurately ripped (confidence 2)  [F5C01822]
Track 13  accurately ripped (confidence 2)  [550F971D]
All tracks accurately ripped
End of status report
Код:
Exact Audio Copy V0.99 prebeta 5 from 4. May 2009
EAC extraction logfile from 25. August 2010, 15:25
Die Krupps / I (The Original Album - Remastered)
Used drive  : ASUS    DRW-22B2ST   Adapter: 4  ID: 0
Read mode               : Secure
Utilize accurate stream : Yes
Defeat audio cache      : Yes
Make use of C2 pointers : No
Read offset correction                      : 6
Overread into Lead-In and Lead-Out          : No
Fill up missing offset samples with silence : Yes
Delete leading and trailing silent blocks   : No
Null samples used in CRC calculations       : Yes
Used interface                              : Installed external ASPI interface
Used output format              : User Defined Encoder
Selected bitrate                : 128 kBit/s
Quality                         : High
Add ID3 tag                     : No
Command line compressor         : C:\Program Files\Exact Audio Copy\Flac\flac.exe
Additional command line options : -8 -V %s
TOC of the extracted CD
     Track |   Start  |  Length  | Start sector | End sector
    ---------------------------------------------------------
        1  |  0:00.00 |  3:02.59 |         0    |    13708
        2  |  3:02.59 |  4:08.67 |     13709    |    32375
        3  |  7:11.51 |  5:03.12 |     32376    |    55112
        4  | 12:14.63 |  3:46.39 |     55113    |    72101
        5  | 16:01.27 |  5:02.22 |     72102    |    94773
        6  | 21:03.49 |  5:01.05 |     94774    |   117353
        7  | 26:04.54 |  3:56.51 |    117354    |   135104
        8  | 30:01.30 |  4:28.68 |    135105    |   155272
        9  | 34:30.23 |  5:18.34 |    155273    |   179156
       10  | 39:48.57 |  4:46.17 |    179157    |   200623
       11  | 44:34.74 |  4:17.35 |    200624    |   219933
       12  | 48:52.34 |  3:49.09 |    219934    |   237117
       13  | 52:41.43 |  5:00.16 |    237118    |   259633
       14  | 57:41.59 |  4:15.23 |    259634    |   278781
       15  | 61:57.07 |  4:09.42 |    278782    |   297498
Range status and errors
Selected range
     Filename F:\!!!_output\EAC\Die Krupps - I (The Original Album - Remastered)\Die Krupps - I (The Original Album - Remastered).wav
     Peak level 96.6 %
     Range quality 100.0 %
     Test CRC 15D36AAD
     Copy CRC 15D36AAD
     Copy OK
No errors occurred
AccurateRip summary
Track  1  accurately ripped (confidence 2)  [07B4465C]
Track  2  accurately ripped (confidence 2)  [9CCA6301]
Track  3  accurately ripped (confidence 2)  [1B8FA124]
Track  4  accurately ripped (confidence 2)  [E0A33E3C]
Track  5  accurately ripped (confidence 2)  [3E1427E9]
Track  6  accurately ripped (confidence 2)  [D129309F]
Track  7  accurately ripped (confidence 2)  [357E89C3]
Track  8  accurately ripped (confidence 2)  [791513E2]
Track  9  accurately ripped (confidence 2)  [1835F339]
Track 10  accurately ripped (confidence 2)  [E318615E]
Track 11  accurately ripped (confidence 2)  [054FF501]
Track 12  accurately ripped (confidence 2)  [448D23C0]
Track 13  accurately ripped (confidence 2)  [730CB6EA]
Track 14  accurately ripped (confidence 2)  [DDE2DF01]
Track 15  accurately ripped (confidence 2)  [6F308E91]
All tracks accurately ripped
End of status report
Код:
REM GENRE Crossover
REM DATE 2008
REM DISCID B40D3F0D
REM COMMENT "ExactAudioCopy v0.99pb5"
PERFORMER "Die Krupps"
TITLE "I (The Alternative Album)"
FILE "Die Krupps - I (The Alternative Album).flac" WAVE
  TRACK 01 AUDIO
    TITLE "High Tech/Low Life"
    PERFORMER "Die Krupps"
    INDEX 01 00:00:00
  TRACK 02 AUDIO
    TITLE "Metal Machine Music"
    PERFORMER "Die Krupps"
    INDEX 00 03:16:39
    INDEX 01 03:17:39
  TRACK 03 AUDIO
    TITLE "Doppelgдnger"
    PERFORMER "Die Krupps"
    INDEX 00 08:33:10
    INDEX 01 08:35:10
  TRACK 04 AUDIO
    TITLE "The Dawning of Doom"
    PERFORMER "Die Krupps"
    INDEX 00 13:37:09
    INDEX 01 13:39:09
  TRACK 05 AUDIO
    TITLE "Ministry of Fear"
    PERFORMER "Die Krupps"
    INDEX 00 17:24:24
    INDEX 01 17:26:24
  TRACK 06 AUDIO
    TITLE "One"
    PERFORMER "Die Krupps"
    INDEX 00 22:20:22
    INDEX 01 22:22:22
  TRACK 07 AUDIO
    TITLE "Simply say No"
    PERFORMER "Die Krupps"
    INDEX 00 27:16:44
    INDEX 01 27:18:44
  TRACK 08 AUDIO
    TITLE "Disciples of Discipline"
    PERFORMER "Die Krupps"
    INDEX 00 31:13:56
    INDEX 01 31:15:56
  TRACK 09 AUDIO
    TITLE "The Power"
    PERFORMER "Die Krupps"
    INDEX 00 35:25:31
    INDEX 01 35:27:31
  TRACK 10 AUDIO
    TITLE "Rings of Steel"
    PERFORMER "Die Krupps"
    INDEX 00 40:46:15
    INDEX 01 40:48:15
  TRACK 11 AUDIO
    TITLE "High Tech/Low Life (Non Guitar Version)"
    PERFORMER "Die Krupps"
    INDEX 00 44:23:66
    INDEX 01 44:25:66
  TRACK 12 AUDIO
    TITLE "Ministry of Fear (Non Guitar Version)"
    PERFORMER "Die Krupps"
    INDEX 00 47:40:37
    INDEX 01 47:42:37
  TRACK 13 AUDIO
    TITLE "Disciples of Discipline (Non Guitar Version)"
    PERFORMER "Die Krupps"
    INDEX 00 52:36:29
    INDEX 01 52:38:29
Код:
REM GENRE Crossover
REM DATE 2008
REM DISCID D80F7E0F
REM COMMENT "ExactAudioCopy v0.99pb5"
PERFORMER "Die Krupps"
TITLE "I (The Original Album - Remastered)"
FILE "Die Krupps - I (The Original Album - Remastered).flac" WAVE
  TRACK 01 AUDIO
    TITLE "High Tech/Low Life"
    PERFORMER "Die Krupps"
    INDEX 01 00:00:00
  TRACK 02 AUDIO
    TITLE "Metal Machine Music"
    PERFORMER "Die Krupps"
    INDEX 00 03:00:59
    INDEX 01 03:02:59
  TRACK 03 AUDIO
    TITLE "Doppelgдnger"
    PERFORMER "Die Krupps"
    FLAGS PRE
    INDEX 00 07:09:51
    INDEX 01 07:11:51
  TRACK 04 AUDIO
    TITLE "The Dawning of Doom"
    PERFORMER "Die Krupps"
    INDEX 00 12:12:63
    INDEX 01 12:14:63
  TRACK 05 AUDIO
    TITLE "Ministry of Fear"
    PERFORMER "Die Krupps"
    INDEX 00 15:59:27
    INDEX 01 16:01:27
  TRACK 06 AUDIO
    TITLE "One"
    PERFORMER "Die Krupps"
    INDEX 00 21:02:49
    INDEX 01 21:03:49
  TRACK 07 AUDIO
    TITLE "Simply say No"
    PERFORMER "Die Krupps"
    INDEX 00 26:02:54
    INDEX 01 26:04:54
  TRACK 08 AUDIO
    TITLE "Disciples of Discipline"
    PERFORMER "Die Krupps"
    INDEX 00 29:59:30
    INDEX 01 30:01:30
  TRACK 09 AUDIO
    TITLE "The Power"
    PERFORMER "Die Krupps"
    INDEX 00 34:29:23
    INDEX 01 34:30:23
  TRACK 10 AUDIO
    TITLE "Rings of Steel"
    PERFORMER "Die Krupps"
    INDEX 00 39:46:57
    INDEX 01 39:48:57
  TRACK 11 AUDIO
    TITLE "Dr. Mabuse (Demo)"
    PERFORMER "Die Krupps"
    INDEX 00 44:32:74
    INDEX 01 44:34:74
  TRACK 12 AUDIO
    TITLE "Metal Machine Music (Demo)"
    PERFORMER "Die Krupps"
    INDEX 00 48:50:34
    INDEX 01 48:52:34
  TRACK 13 AUDIO
    TITLE "Doppelgдnger (Demo)"
    PERFORMER "Die Krupps"
    INDEX 00 52:39:43
    INDEX 01 52:41:43
  TRACK 14 AUDIO
    TITLE "Simply say No (Demo)"
    PERFORMER "Die Krupps"
    INDEX 00 57:39:59
    INDEX 01 57:41:59
  TRACK 15 AUDIO
    TITLE "The Power (Demo)"
    PERFORMER "Die Krupps"
    INDEX 00 61:55:07
    INDEX 01 61:57:07
Код:
[url=http://radikal.ru/F/s004.radikal.ru/i208/1008/3d/9b93b94849e8.jpg.html][img]http://s004.radikal.ru/i208/1008/3d/9b93b94849e8t.jpg[/img][/url] [url=http://radikal.ru/F/s52.radikal.ru/i135/1008/dd/6b4a95378a53.jpg.html][img]http://s52.radikal.ru/i135/1008/dd/6b4a95378a53t.jpg[/img][/url]
Код:
[url=http://radikal.ru/F/i073.radikal.ru/1008/0e/113dd9f5c623.jpg.html][img]http://i073.radikal.ru/1008/0e/113dd9f5c623t.jpg[/img][/url][url=http://radikal.ru/F/s41.radikal.ru/i094/1008/c3/192bc2d27f12.jpg.html][img]http://s41.radikal.ru/i094/1008/c3/192bc2d27f12t.jpg[/img][/url][url=http://radikal.ru/F/s60.radikal.ru/i170/1008/a9/3b3a2cf3c6e4.jpg.html][img]http://s60.radikal.ru/i170/1008/a9/3b3a2cf3c6e4t.jpg[/img][/url][url=http://radikal.ru/F/s57.radikal.ru/i158/1008/fa/c4f90214dc78.jpg.html][img]http://s57.radikal.ru/i158/1008/fa/c4f90214dc78t.jpg[/img][/url]

Другие раздачи:
Die Krupps - Entering The Arena - 1993, FLAC (image+.cue), lossless
Die Krupps - "I" 2CD (reissue) - 2008, MP3 (tracks), VBR 192-320 kbps
Die Krupps - Volle Kraft Voraus! (Reissue 2CD) - 2008 (1981), FLAC (image+.cue), lossless
Die Krupps - Volle Kraft Voraus - 1982, APE (image + .cue), lossless
Die Krupps - Metall Maschinen Musik 91-81 Past Forward (1991), FLAC (image+.cue), lossless
Die Krupps feat. Accuser - Metal Machine Music (Single) - 1992, FLAC (image+.cue), lossless
Die Krupps - 3 альбома, 2 сингла - 1992, 93, 95, APE (image + .cue), lossless
Die Krupps - Stahlwerksinfonie & Wahre Arbeit - Wahrer Lohn - 1981, APE (image + .cue), lossless
Правила, инструкции, FAQ!!!
Торрент  Добавлен [26 июн 2020, 20:06] Скачать торрент Магнет ссылка
Скачать торрент
[ Размер 19.99 КБ / Просмотров 5 ]

Статус
Проверен 
 
Размер  930.36 МБ
Приватный: Нет (DHT включён)
.torrent скачан  0
 


     Отправить личное сообщение
   
Страница 1 из 1
Показать сообщения за:  Поле сортировки  
Начать новую тему Ответить на тему


Сейчас этот форум просматривают: нет зарегистрированных пользователей и гости: 0


Вы не можете начинать темы
Вы не можете отвечать на сообщения
Вы не можете редактировать свои сообщения
Вы не можете удалять свои сообщения
Вы не можете добавлять вложения

Перейти:  
cron