Начать новую тему Ответить на тему
Статистика раздачи
Размер: 477.03 МБ | Добавлен: 26 июн 2020, 20:01 | Скачали: 0
Сидеров: 0  [0 байт/сек]    Личеров: 0  [0 байт/сек]
Пред. тема | След. тема 

Автор
Сообщение

СообщениеДобавлено: 26 июн 2020, 20:01 

Ответить с цитатой 

Zillo Club-Hits 1
Жанр: Electronic, Rock, EBM, Electro, Goth Rock
Носитель: CD
Страна-производитель диска (релиза): Germany
Год издания: 1996
Издатель (лейбл): Zillo
Номер по каталогу: 085-26072
Аудиокодек: FLAC (*.flac)
Тип рипа: tracks+.cue
Битрейт аудио: lossless
Продолжительность: 01:11:37
Источник (релизер): what.cd, nyineen
Наличие сканов в содержимом раздачи: нет
Треклист:
1. Apoptygma Berzerk - Nonstop Violence
2. Capital Hell - My God
3. Klinik - Moving Hands
4. Terminal Choice - Sehnsucht
5. Inside - The Whip
6. Ikon - In a Lonely Place
7. Covenant - Feedback
8. Christian Death - Face
9. Project Pitchfork - Requiem
10. Still Silent - Shockwaved
11. Crematory - Tears of Time
12. Nefilim - Shine
13. London After Midnight - Hate
14. Deine Lakaien - Away
Код:
EAC extraction logfile from 14. May 2008, 10:38 for CD
Various / Zillo Club-Hits 1
Used drive  : HL-DT-STDVD-ROM GDR8164B   Adapter: 0  ID: 1
Read mode   : Secure with NO C2, accurate stream, disable cache
Read offset correction : 102
Overread into Lead-In and Lead-Out : No
Used output format : C:\Programme\Exact Audio Copy\flac.exe   (User Defined Encoder)
                     128 kBit/s
                     Additional command line options : -8 -A tukey(0.25) -A gauss(0.1875) -b 4096 -V -T "artist=%a" -T "title=%t" -T "album=%g" -T "date=%y" -T "tracknumber=%n" -T "genre=%m" %s --sector-align
Other options      :
    Fill up missing offset samples with silence : Yes
    Delete leading and trailing silent blocks : No
    Installed external ASPI interface
Track  1
     Filename D:\MP3s\incoming\Various - Zillo Club-Hits 1\01 - Apoptygma Berzerk - Nonstop Violence.wav
     Pre-gap length  0:00:02.00
     Peak level 98.6 %
     Track quality 100.0 %
     Test CRC 3D5667CA
     Copy CRC 3D5667CA
     Copy OK
Track  2
     Filename D:\MP3s\incoming\Various - Zillo Club-Hits 1\02 - Capital Hell - My God.wav
     Pre-gap length  0:00:01.93
     Peak level 89.8 %
     Track quality 100.0 %
     Test CRC 58F3DB96
     Copy CRC 58F3DB96
     Copy OK
Track  3
     Filename D:\MP3s\incoming\Various - Zillo Club-Hits 1\03 - Klinik - Moving Hands.wav
     Pre-gap length  0:00:01.90
     Peak level 97.7 %
     Track quality 100.0 %
     Test CRC 2C43FF78
     Copy CRC 2C43FF78
     Copy OK
Track  4
     Filename D:\MP3s\incoming\Various - Zillo Club-Hits 1\04 - Terminal Choice - Sehnsucht.wav
     Pre-gap length  0:00:01.96
     Peak level 94.4 %
     Track quality 99.9 %
     Test CRC 342504A4
     Copy CRC 342504A4
     Copy OK
Track  5
     Filename D:\MP3s\incoming\Various - Zillo Club-Hits 1\05 - Inside - The Whip.wav
     Pre-gap length  0:00:01.90
     Peak level 98.8 %
     Track quality 100.0 %
     Test CRC E46BBC53
     Copy CRC E46BBC53
     Copy OK
Track  6
     Filename D:\MP3s\incoming\Various - Zillo Club-Hits 1\06 - Ikon - In A Lonely Place.wav
     Pre-gap length  0:00:01.96
     Peak level 100.0 %
     Track quality 100.0 %
     Test CRC 139BAAB9
     Copy CRC 139BAAB9
     Copy OK
Track  7
     Filename D:\MP3s\incoming\Various - Zillo Club-Hits 1\07 - Covenant - Feedback.wav
     Pre-gap length  0:00:01.96
     Peak level 96.6 %
     Track quality 100.0 %
     Test CRC AF0AABA3
     Copy CRC AF0AABA3
     Copy OK
Track  8
     Filename D:\MP3s\incoming\Various - Zillo Club-Hits 1\08 - Christian Death - Face.wav
     Pre-gap length  0:00:01.96
     Peak level 100.0 %
     Track quality 100.0 %
     Test CRC BE9D6EF4
     Copy CRC BE9D6EF4
     Copy OK
Track  9
     Filename D:\MP3s\incoming\Various - Zillo Club-Hits 1\09 - Project Pitchfork - Requiem.wav
     Pre-gap length  0:00:01.96
     Peak level 99.1 %
     Track quality 99.9 %
     Test CRC 3EED6003
     Copy CRC 3EED6003
     Copy OK
Track 10
     Filename D:\MP3s\incoming\Various - Zillo Club-Hits 1\10 - Still Silent - Shockwaved.wav
     Pre-gap length  0:00:01.96
     Peak level 95.5 %
     Track quality 100.0 %
     Test CRC 24D67365
     Copy CRC 24D67365
     Copy OK
Track 11
     Filename D:\MP3s\incoming\Various - Zillo Club-Hits 1\11 - Crematory - Tears Of Time.wav
     Pre-gap length  0:00:01.93
     Peak level 95.5 %
     Track quality 100.0 %
     Test CRC 6F55522D
     Copy CRC 6F55522D
     Copy OK
Track 12
     Filename D:\MP3s\incoming\Various - Zillo Club-Hits 1\12 - Nefilim - Shine.wav
     Pre-gap length  0:00:01.93
     Peak level 95.5 %
     Track quality 100.0 %
     Test CRC 2101A2C8
     Copy CRC 2101A2C8
     Copy OK
Track 13
     Filename D:\MP3s\incoming\Various - Zillo Club-Hits 1\13 - London After Midnight - Hate.wav
     Pre-gap length  0:00:01.96
     Peak level 98.6 %
     Track quality 99.9 %
     Test CRC B2F5EF1F
     Copy CRC B2F5EF1F
     Copy OK
Track 14
     Filename D:\MP3s\incoming\Various - Zillo Club-Hits 1\14 - Deine Lakaien - Away.wav
     Pre-gap length  0:00:01.77
     Peak level 66.8 %
     Track quality 99.8 %
     Test CRC 63D10914
     Copy CRC 63D10914
     Copy OK
No errors occured
End of status report
Код:
REM DATE 1996
REM DISCID CE10C90E
REM COMMENT "ExactAudioCopy v0.95b3"
PERFORMER "Various Artists"
TITLE "Zillo Club-Hits 1"
FILE "01. Apoptygma Berzerk - Nonstop Violence.wav" WAVE
  TRACK 01 AUDIO
    TITLE "Nonstop Violence"
    PERFORMER "Apoptygma Berzerk"
    INDEX 01 00:00:00
  TRACK 02 AUDIO
    TITLE "My God"
    PERFORMER "Capital Hell"
    INDEX 00 06:51:32
FILE "02. Capital Hell - My God.wav" WAVE
    INDEX 01 00:00:00
  TRACK 03 AUDIO
    TITLE "Moving Hands"
    PERFORMER "Klinik"
    INDEX 00 04:01:09
FILE "03. Klinik - Moving Hands.wav" WAVE
    INDEX 01 00:00:00
  TRACK 04 AUDIO
    TITLE "Sehnsucht"
    PERFORMER "Terminal Choice"
    INDEX 00 03:56:42
FILE "04. Terminal Choice - Sehnsucht.wav" WAVE
    INDEX 01 00:00:00
  TRACK 05 AUDIO
    TITLE "The Whip"
    PERFORMER "Inside"
    INDEX 00 06:54:36
FILE "05. Inside - The Whip.wav" WAVE
    INDEX 01 00:00:00
  TRACK 06 AUDIO
    TITLE "In a Lonely Place"
    PERFORMER "Ikon"
    INDEX 00 04:02:50
FILE "06. Ikon - In a Lonely Place.wav" WAVE
    INDEX 01 00:00:00
  TRACK 07 AUDIO
    TITLE "Feedback"
    PERFORMER "Covenant"
    INDEX 00 05:56:40
FILE "07. Covenant - Feedback.wav" WAVE
    INDEX 01 00:00:00
  TRACK 08 AUDIO
    TITLE "Face"
    PERFORMER "Christian Death"
    INDEX 00 05:49:35
FILE "08. Christian Death - Face.wav" WAVE
    INDEX 01 00:00:00
  TRACK 09 AUDIO
    TITLE "Requiem"
    PERFORMER "Project Pitchfork"
    INDEX 00 03:53:65
FILE "09. Project Pitchfork - Requiem.wav" WAVE
    INDEX 01 00:00:00
  TRACK 10 AUDIO
    TITLE "Shockwaved"
    PERFORMER "Still Silent"
    INDEX 00 04:54:13
FILE "10. Still Silent - Shockwaved.wav" WAVE
    INDEX 01 00:00:00
  TRACK 11 AUDIO
    TITLE "Tears of Time"
    PERFORMER "Crematory"
    INDEX 00 03:56:19
FILE "11. Crematory - Tears of Time.wav" WAVE
    INDEX 01 00:00:00
  TRACK 12 AUDIO
    TITLE "Shine"
    PERFORMER "Nefilim"
    INDEX 00 05:00:47
FILE "12. Nefilim - Shine.wav" WAVE
    INDEX 01 00:00:00
  TRACK 13 AUDIO
    TITLE "Hate"
    PERFORMER "London After Midnight"
    INDEX 00 06:47:20
FILE "13. London After Midnight - Hate.wav" WAVE
    INDEX 01 00:00:00
  TRACK 14 AUDIO
    TITLE "Away"
    PERFORMER "Deine Lakaien"
    INDEX 00 04:49:64
FILE "14. Deine Lakaien - Away.wav" WAVE
    INDEX 01 00:00:00
Правила, инструкции, FAQ!!!
Торрент  Добавлен [26 июн 2020, 20:01] Скачать торрент Магнет ссылка
Скачать торрент
[ Размер 20.17 КБ / Просмотров 12 ]

Статус
Проверен 
 
Размер  477.03 МБ
Приватный: Нет (DHT включён)
.torrent скачан  0
 


     Отправить личное сообщение
   
Страница 1 из 1
Показать сообщения за:  Поле сортировки  
Начать новую тему Ответить на тему


Сейчас этот форум просматривают: нет зарегистрированных пользователей и гости: 0


Вы не можете начинать темы
Вы не можете отвечать на сообщения
Вы не можете редактировать свои сообщения
Вы не можете удалять свои сообщения
Вы не можете добавлять вложения

Перейти:  
cron