Начать новую тему Ответить на тему
Статистика раздачи
Размер: 3.77 ГБ | Добавлен: 26 июн 2020, 17:59 | Скачали: 0
Сидеров: 0  [0 байт/сек]    Личеров: 0  [0 байт/сек]
Пред. тема | След. тема 

Автор
Сообщение

СообщениеДобавлено: 26 июн 2020, 17:59 

Ответить с цитатой 

Darkness Before Dawn Vol. 1,2,3
Жанр: Electronic / Rock
Страна-производитель дисков: Germany
Годы издания дисков: 2009, 2010, 2011
Издатель (лейбл): UpScene / Indigo
Формат: 2 × CD, Compilation
Аудиокодек: FLAC (*.flac)
Тип рипа: image+.cue
Битрейт аудио: lossless
Источник (релизер): Физические носители (Собственный рип с оригинальных CD).
Наличие сканов в содержимом раздачи: да
Примечание к изданиям:
Компилляции от UpScene представляют собой интересное решение:
2-х дисковое издание c трэками из разряда "unreleased / exclusive / rare / first time on CD".
Общая стилистическая характеристика очень разноплановая:
Alternative Rock, Industrial, Indie Rock, Techno, EBM, Abstract, Punk, Avantgarde, Darkwave, New Wave, Post-Punk, Drone, Experimental, Trance, Electro, Goth Rock, Synth-pop, Minimal
При этом:
первый CD "Darkness" заполнен композициями в жанре Rock
второй CD "Dawn", соответственно - Electronic
#777Год издания: 2009
Номер по каталогу: UP 0910 / INDIGO 93136-2
#777Продолжительность: 1:17:01.00
Треклист:
01. Solemn Novena - Juliette [3:54]
02. Pretentious, Moi? - Living Dead And Undecided [4:28]
03. The Shallow Graves - Summer Rain [4:58]
04. Grooving In Green - Scene Whore [3:39]
05. Hatesex - A Rose Without Eyes (Demo) [3:16]
06. Mephisto Walz with Sara Kross - Betrayal By Night [3:24]
07. The Eden House - Freakshow [4:13]
08. Murder At the Registry - Walls Come Down [3:24]
09. New Days Delay - Zeitschliff Durch Cortexresektion [3:19]
10. Frustration - Too Many Questions [3:37]
11. Miserylab - Making A Bomb (Single Edit) [4:13]
12. The Hunt - Fifteen Minutes (New Mix) [4:01]
13. War Tapes - Mind Is Ugly [3:33]
14. Project:Komakino - Civility [2:41]
15. (((S))) - Deathtrip [3:38]
16. Bloody Dead And Sexy - Candy Box (Demo) [3:46]
17. Vendemmian - Another Day [3:57]
18. The Cold - Seaside Vacancy [5:14]
19. Sleepmask - Choose That Girl [4:06]
20. Telegram Frank - In Jail [3:38]
Код:
Exact Audio Copy V1.0 beta 3 from 29. August 2011
EAC extraction logfile from 18. February 2012, 21:29
Various / Darkness Before Dawn Vol.1 (CD1)
Used drive  : PLEXTOR BDDVDR PX-B320SA   Adapter: 0  ID: 2
Read mode               : Secure
Utilize accurate stream : Yes
Defeat audio cache      : Yes
Make use of C2 pointers : No
Read offset correction                      : 6
Overread into Lead-In and Lead-Out          : No
Fill up missing offset samples with silence : Yes
Delete leading and trailing silent blocks   : No
Null samples used in CRC calculations       : Yes
Used interface                              : Native Win32 interface for Win NT & 2000
Used output format              : User Defined Encoder
Selected bitrate                : 128 kBit/s
Quality                         : High
Add ID3 tag                     : No
Command line compressor         : C:\Program Files (x86)\FLAC\flac.exe
Additional command line options : -V -8 -T "Date=%year%" -T "Genre=%genre%" %source%
TOC of the extracted CD
     Track |   Start  |  Length  | Start sector | End sector
    ---------------------------------------------------------
        1  |  0:00.00 |  3:53.74 |         0    |    17548
        2  |  3:53.74 |  4:27.53 |     17549    |    37626
        3  |  8:21.52 |  4:57.62 |     37627    |    59963
        4  | 13:19.39 |  3:38.64 |     59964    |    76377
        5  | 16:58.28 |  3:15.63 |     76378    |    91065
        6  | 20:14.16 |  3:24.08 |     91066    |   106373
        7  | 23:38.24 |  4:12.58 |    106374    |   125331
        8  | 27:51.07 |  3:23.72 |    125332    |   140628
        9  | 31:15.04 |  3:18.59 |    140629    |   155537
       10  | 34:33.63 |  3:36.69 |    155538    |   171806
       11  | 38:10.57 |  4:13.33 |    171807    |   190814
       12  | 42:24.15 |  4:01.43 |    190815    |   208932
       13  | 46:25.58 |  3:33.23 |    208933    |   224930
       14  | 49:59.06 |  2:41.18 |    224931    |   237023
       15  | 52:40.24 |  3:38.22 |    237024    |   253395
       16  | 56:18.46 |  3:46.10 |    253396    |   270355
       17  | 60:04.56 |  3:57.14 |    270356    |   288144
       18  | 64:01.70 |  5:14.40 |    288145    |   311734
       19  | 69:16.35 |  4:06.43 |    311735    |   330227
       20  | 73:23.03 |  3:37.72 |    330228    |   346574
Range status and errors
Selected range
     Filename D:\Various - Darkness Before Dawn Volume 1 (2009)\CD1 DARKNESS\Various - Darkness Before Dawn Vol.1 (CD1).wav
     Peak level 100.0 %
     Extraction speed 8.6 X
     Range quality 100.0 %
     Test CRC 913CA3F5
     Copy CRC 913CA3F5
     Copy OK
No errors occurred
AccurateRip summary
Track  1  accurately ripped (confidence 4)  [91C657E9]  (AR v1)
Track  2  accurately ripped (confidence 4)  [FA7CEB97]  (AR v1)
Track  3  accurately ripped (confidence 4)  [C44F4B47]  (AR v1)
Track  4  accurately ripped (confidence 4)  [790291E0]  (AR v1)
Track  5  accurately ripped (confidence 4)  [6AE974AC]  (AR v1)
Track  6  accurately ripped (confidence 4)  [303F50FE]  (AR v1)
Track  7  accurately ripped (confidence 3)  [9C559C97]  (AR v1)
Track  8  accurately ripped (confidence 4)  [B0597C92]  (AR v1)
Track  9  accurately ripped (confidence 4)  [635CCB95]  (AR v1)
Track 10  accurately ripped (confidence 4)  [41D77351]  (AR v1)
Track 11  accurately ripped (confidence 4)  [80D3416F]  (AR v1)
Track 12  accurately ripped (confidence 4)  [A5BE71F2]  (AR v1)
Track 13  accurately ripped (confidence 4)  [CAE1B75F]  (AR v1)
Track 14  accurately ripped (confidence 4)  [C94C9F3C]  (AR v1)
Track 15  accurately ripped (confidence 4)  [BC5986B2]  (AR v1)
Track 16  accurately ripped (confidence 4)  [4A1C3A03]  (AR v1)
Track 17  accurately ripped (confidence 4)  [96790169]  (AR v1)
Track 18  accurately ripped (confidence 4)  [891C1DAA]  (AR v1)
Track 19  accurately ripped (confidence 4)  [049A8575]  (AR v1)
Track 20  accurately ripped (confidence 4)  [2D571759]  (AR v1)
All tracks accurately ripped
End of status report
==== Log checksum E93C96027FA553EA542DF17A1CF61F528773D5E5ACE631CEEF1A83D987867E93 ====
#777Продолжительность: 1:14:44.00
Треклист:
01. Absolute Body Control - Into The Light [4:49]
02. Informer - Wires [3:28]
03. Katsen - Where Nobody Can Find Us [3:27]
04. Human Puppets - Heartbeat [3:30]
05. Velvet Condom - Never Ever [3:47]
06. Echo West - All Of Me [3:52]
07. Egoamp - The Cabinet (Edit Version) [4:22]
08. Reizstrom - Wütendes Glas [4:03]
09. Plastikstrom - Pogokinder [3:19]
10. Brigade Rosse - Interzone BRD [3:35]
11. QEK Junior - Pervitin [4:04]
12. Hertzinfarkt - Stell Lauter [3:49]
13. Sonnenbrandt - Rotes Telefon [5:08]
14. Monophone Struktur - Weiss-Schwarz [2:59]
15. Die Perlen - Augen der Großstadt [3:45]
16. Keen K. feat. Dorian E. - Ocean Grass [2:48]
17. Medio Mutante - Inestable [2:05]
18. The Silicon Scientist - Solitary Dancer (Remix 09) [4:23]
19. Divider - Cold Eyes [3:19]
20. Sickdoll & The Nuclear Shades - Modern World [4:08]
Код:
Exact Audio Copy V1.0 beta 3 from 29. August 2011
EAC extraction logfile from 18. February 2012, 21:59
Various / Darkness Before Dawn Vol.1 (CD2)
Used drive  : PLEXTOR BDDVDR PX-B320SA   Adapter: 0  ID: 2
Read mode               : Secure
Utilize accurate stream : Yes
Defeat audio cache      : Yes
Make use of C2 pointers : No
Read offset correction                      : 6
Overread into Lead-In and Lead-Out          : No
Fill up missing offset samples with silence : Yes
Delete leading and trailing silent blocks   : No
Null samples used in CRC calculations       : Yes
Used interface                              : Native Win32 interface for Win NT & 2000
Used output format              : User Defined Encoder
Selected bitrate                : 128 kBit/s
Quality                         : High
Add ID3 tag                     : No
Command line compressor         : C:\Program Files (x86)\FLAC\flac.exe
Additional command line options : -V -8 -T "Date=%year%" -T "Genre=%genre%" %source%
TOC of the extracted CD
     Track |   Start  |  Length  | Start sector | End sector
    ---------------------------------------------------------
        1  |  0:00.00 |  4:48.58 |         0    |    21657
        2  |  4:48.58 |  3:28.12 |     21658    |    37269
        3  |  8:16.70 |  3:27.03 |     37270    |    52797
        4  | 11:43.73 |  3:30.22 |     52798    |    68569
        5  | 15:14.20 |  3:47.06 |     68570    |    85600
        6  | 19:01.26 |  3:52.12 |     85601    |   103012
        7  | 22:53.38 |  4:22.41 |    103013    |   122703
        8  | 27:16.04 |  4:03.33 |    122704    |   140961
        9  | 31:19.37 |  3:18.66 |    140962    |   155877
       10  | 34:38.28 |  3:35.17 |    155878    |   172019
       11  | 38:13.45 |  4:03.63 |    172020    |   190307
       12  | 42:17.33 |  3:49.12 |    190308    |   207494
       13  | 46:06.45 |  5:08.40 |    207495    |   230634
       14  | 51:15.10 |  2:58.66 |    230635    |   244050
       15  | 54:14.01 |  3:45.23 |    244051    |   260948
       16  | 57:59.24 |  2:48.49 |    260949    |   273597
       17  | 60:47.73 |  2:04.63 |    273598    |   282960
       18  | 62:52.61 |  4:23.18 |    282961    |   302703
       19  | 67:16.04 |  3:19.23 |    302704    |   317651
       20  | 70:35.27 |  4:08.48 |    317652    |   336299
Range status and errors
Selected range
     Filename D:\Various - Darkness Before Dawn Volume 1 (2009)\CD2 DAWN\Various - Darkness Before Dawn Vol.1 (CD2).wav
     Peak level 100.0 %
     Extraction speed 8.4 X
     Range quality 99.9 %
     Test CRC 254D4515
     Copy CRC 254D4515
     Copy OK
No errors occurred
AccurateRip summary
Track  1  accurately ripped (confidence 3)  [36326339]  (AR v1)
Track  2  accurately ripped (confidence 3)  [0CC0CACD]  (AR v1)
Track  3  accurately ripped (confidence 3)  [ECFD0A37]  (AR v1)
Track  4  accurately ripped (confidence 2)  [CF00A9BA]  (AR v1)
Track  5  accurately ripped (confidence 3)  [3EFF3CED]  (AR v1)
Track  6  accurately ripped (confidence 3)  [0CE20A61]  (AR v1)
Track  7  accurately ripped (confidence 2)  [C905CA67]  (AR v1)
Track  8  accurately ripped (confidence 2)  [A1D98FE9]  (AR v1)
Track  9  accurately ripped (confidence 2)  [C74C8443]  (AR v1)
Track 10  accurately ripped (confidence 2)  [629D70A6]  (AR v1)
Track 11  accurately ripped (confidence 2)  [ACD30ED6]  (AR v1)
Track 12  accurately ripped (confidence 3)  [961D8204]  (AR v1)
Track 13  accurately ripped (confidence 2)  [C763E7A5]  (AR v1)
Track 14  accurately ripped (confidence 2)  [D864DD76]  (AR v1)
Track 15  accurately ripped (confidence 2)  [643438E5]  (AR v1)
Track 16  accurately ripped (confidence 2)  [99E3032B]  (AR v1)
Track 17  accurately ripped (confidence 2)  [DA37C122]  (AR v1)
Track 18  accurately ripped (confidence 2)  [E937AD30]  (AR v1)
Track 19  accurately ripped (confidence 2)  [D77E1A6C]  (AR v1)
Track 20  accurately ripped (confidence 2)  [8F5BE338]  (AR v1)
All tracks accurately ripped
End of status report
==== Log checksum ACACCFD1A608CB67825CFD99044F8BCBBC22F9C7D12430DF2D3A2D2366A2F1BE ====
#777Год издания: 2010
Номер по каталогу: UP 1034 / INDIGO 94706-2
#777Продолжительность: 1:19:56.00
Треклист:
01. Blacklist - Interiors [4:50]
02. The Exploding Boy - I Am Truth [3:21]
03. Faith And The Muse - Sovereign [4:24]
04. Christ vs. Warhol - Cross Of Lorraine (EP Version) [4:34]
05. Whispers In The Shadow - The Lost Souls (Thaumiel Mix) [3:34]
06. Golden Apes - Liberation [Hieros Gamos] (Bridal Night Version) [3:57]
07. The House Of Usher - To The Glorious Dead (Edit) [4:30]
08. Morbid Poetry - All The Days [4:20]
09. Reptyle - Heroes Of The Working Dead [4:17]
10. Nosferatu - Black Hole (Cathedral Mix) [4:21]
11. Frank The Baptist - Scars Forever (Saloon Version) [5:02]
12. Ditto ≠ Destroyer - Old Castles (Remix) [3:34]
13. Madre Del Vizio - Linda, Ochi Vergini E Blu (B.B. Remix) [5:06]
14. Twisted Nerve - Magic Of Trance [4:49]
15. Peeling Grey - Peeling Grey (Demo II) [3:18]
16. Monozid - Turquoise Fields Burn Better, Honey [3:41]
17. The Wars - Sequence [3:34]
18. Pinoreks - War Games [1:33]
19. De Volanges - Sweet Times Burn [5:21]
20. Place4Tears - My Private End (Darkness Before Dawn Cut) [1:49]
Код:
Exact Audio Copy V1.0 beta 3 from 29. August 2011
EAC extraction logfile from 18. February 2012, 23:05
Various / Darkness Before Dawn Vol.2 (CD1)
Used drive  : PLEXTOR BDDVDR PX-B320SA   Adapter: 0  ID: 2
Read mode               : Secure
Utilize accurate stream : Yes
Defeat audio cache      : Yes
Make use of C2 pointers : No
Read offset correction                      : 6
Overread into Lead-In and Lead-Out          : No
Fill up missing offset samples with silence : Yes
Delete leading and trailing silent blocks   : No
Null samples used in CRC calculations       : Yes
Used interface                              : Native Win32 interface for Win NT & 2000
Used output format              : User Defined Encoder
Selected bitrate                : 128 kBit/s
Quality                         : High
Add ID3 tag                     : No
Command line compressor         : C:\Program Files (x86)\FLAC\flac.exe
Additional command line options : -V -8 -T "Date=%year%" -T "Genre=%genre%" %source%
TOC of the extracted CD
     Track |   Start  |  Length  | Start sector | End sector
    ---------------------------------------------------------
        1  |  0:00.00 |  4:50.08 |         0    |    21757
        2  |  4:50.08 |  3:20.65 |     21758    |    36822
        3  |  8:10.73 |  4:24.15 |     36823    |    56637
        4  | 12:35.13 |  4:33.73 |     56638    |    77185
        5  | 17:09.11 |  3:33.61 |     77186    |    93221
        6  | 20:42.72 |  3:56.63 |     93222    |   110984
        7  | 24:39.60 |  4:30.19 |    110985    |   131253
        8  | 29:10.04 |  4:20.12 |    131254    |   150765
        9  | 33:30.16 |  4:16.53 |    150766    |   170018
       10  | 37:46.69 |  4:20.62 |    170019    |   189580
       11  | 42:07.56 |  5:01.74 |    189581    |   212229
       12  | 47:09.55 |  3:34.02 |    212230    |   228281
       13  | 50:43.57 |  5:06.14 |    228282    |   251245
       14  | 55:49.71 |  4:48.64 |    251246    |   272909
       15  | 60:38.60 |  3:18.19 |    272910    |   287778
       16  | 63:57.04 |  3:41.41 |    287779    |   304394
       17  | 67:38.45 |  3:33.58 |    304395    |   320427
       18  | 71:12.28 |  1:33.28 |    320428    |   327430
       19  | 72:45.56 |  5:20.64 |    327431    |   351494
       20  | 78:06.45 |  1:49.30 |    351495    |   359699
Range status and errors
Selected range
     Filename D:\Various - Darkness Before Dawn Volume 2 (2010)\CD1 DARKNESS\Various - Darkness Before Dawn Vol.2 (CD1).wav
     Peak level 99.9 %
     Extraction speed 3.6 X
     Range quality 100.0 %
     Test CRC BE28A9E9
     Copy CRC BE28A9E9
     Copy OK
No errors occurred
AccurateRip summary
Track  1  accurately ripped (confidence 1)  [CAB50E67]  (AR v1)
Track  2  accurately ripped (confidence 1)  [27433711]  (AR v1)
Track  3  accurately ripped (confidence 1)  [EFD64C5F]  (AR v1)
Track  4  accurately ripped (confidence 1)  [F9C3BD27]  (AR v1)
Track  5  accurately ripped (confidence 1)  [3B83AB93]  (AR v1)
Track  6  accurately ripped (confidence 1)  [568AAAAF]  (AR v1)
Track  7  accurately ripped (confidence 1)  [34CAC795]  (AR v1)
Track  8  accurately ripped (confidence 1)  [6F6C81DB]  (AR v1)
Track  9  accurately ripped (confidence 1)  [8C82C42B]  (AR v1)
Track 10  accurately ripped (confidence 1)  [7128DBD0]  (AR v1)
Track 11  accurately ripped (confidence 1)  [237BCEFA]  (AR v1)
Track 12  accurately ripped (confidence 1)  [B7EAA5D9]  (AR v1)
Track 13  accurately ripped (confidence 1)  [D8F972FC]  (AR v1)
Track 14  accurately ripped (confidence 1)  [B723050C]  (AR v1)
Track 15  accurately ripped (confidence 1)  [D560228A]  (AR v1)
Track 16  accurately ripped (confidence 1)  [D4427457]  (AR v1)
Track 17  accurately ripped (confidence 1)  [9CD1C6F0]  (AR v1)
Track 18  accurately ripped (confidence 1)  [653F7D13]  (AR v1)
Track 19  accurately ripped (confidence 1)  [45DE6988]  (AR v1)
Track 20  accurately ripped (confidence 1)  [0BD9CDFC]  (AR v1)
All tracks accurately ripped
End of status report
==== Log checksum 5980EBC235944F6E5E389F9206356CCF6AB0E3922507154D34EEDB842A3EC239 ====
#777Продолжительность: 1:17:13.00
Треклист:
01. John Foxx - Underpass (Reeder's Sinister Subway Radio Remix) [4:08]
02. Invincible Spirit - Provoke You (2010) [5:36]
03. Tobias Bernstrup - Hitman (7" Version) [3:48]
04. Bakterielle Infektion - Bisphenol A (Rendered Version) [2:41]
05. Alien Skull Paint - The Ritual [3:22]
06. Vendome - Coppertone Light [3:08]
07. Second Planet - Mauern [4:09]
08. Alienphobie - Plan B [3:32]
09. The Plasmareds - Getanzte Lebenszeit [4:03]
10. Xeno & Oaklander - Saracen [4:18]
11. Andi Sex Gang - Dust & Death (Death Before Dawn Version) [4:49]
12. Flashbacks - The Garni (Darkness Before Dawn Edit) [2:32]
13. Led Er Erst - Port Isabel [4:13]
14. Sixth June - What's There Left? [3:15]
15. Micron Sixty Three - Repeat (Edit) [3:46]
16. Schonwald - Slow Milk [3:16]
17. Nina Belief - Identity Crisis [4:45]
18. Epic Dreams - Dark Clouds [3:39]
19. Trans-Active Nightzone - White Rooms [4:37]
20. Lower Synth Department - Waiting [3:35]
Код:
Exact Audio Copy V1.0 beta 3 from 29. August 2011
EAC extraction logfile from 19. February 2012, 0:37
Various / Darkness Before Dawn Vol.2 (CD2)
Used drive  : PLEXTOR BDDVDR PX-B320SA   Adapter: 0  ID: 2
Read mode               : Secure
Utilize accurate stream : Yes
Defeat audio cache      : Yes
Make use of C2 pointers : No
Read offset correction                      : 6
Overread into Lead-In and Lead-Out          : No
Fill up missing offset samples with silence : Yes
Delete leading and trailing silent blocks   : No
Null samples used in CRC calculations       : Yes
Used interface                              : Native Win32 interface for Win NT & 2000
Used output format              : User Defined Encoder
Selected bitrate                : 128 kBit/s
Quality                         : High
Add ID3 tag                     : No
Command line compressor         : C:\Program Files (x86)\FLAC\flac.exe
Additional command line options : -V -8 -T "Date=%year%" -T "Genre=%genre%" %source%
TOC of the extracted CD
     Track |   Start  |  Length  | Start sector | End sector
    ---------------------------------------------------------
        1  |  0:00.00 |  4:08.37 |         0    |    18636
        2  |  4:08.37 |  5:35.50 |     18637    |    43811
        3  |  9:44.12 |  3:47.54 |     43812    |    60890
        4  | 13:31.66 |  2:41.18 |     60891    |    72983
        5  | 16:13.09 |  3:21.68 |     72984    |    88126
        6  | 19:35.02 |  3:07.70 |     88127    |   102221
        7  | 22:42.72 |  4:09.10 |    102222    |   120906
        8  | 26:52.07 |  3:32.16 |    120907    |   136822
        9  | 30:24.23 |  4:03.19 |    136823    |   155066
       10  | 34:27.42 |  4:18.12 |    155067    |   174428
       11  | 38:45.54 |  4:48.51 |    174429    |   196079
       12  | 43:34.30 |  2:32.47 |    196080    |   207526
       13  | 46:07.02 |  4:12.60 |    207527    |   226486
       14  | 50:19.62 |  3:15.14 |    226487    |   241125
       15  | 53:35.01 |  3:45.65 |    241126    |   258065
       16  | 57:20.66 |  3:15.51 |    258066    |   272741
       17  | 60:36.42 |  4:45.24 |    272742    |   294140
       18  | 65:21.66 |  3:38.61 |    294141    |   310551
       19  | 69:00.52 |  4:36.55 |    310552    |   331306
       20  | 73:37.32 |  3:35.43 |    331307    |   347474
Range status and errors
Selected range
     Filename D:\Various - Darkness Before Dawn Volume 2 (2010)\CD2 DAWN\Various - Darkness Before Dawn Vol.2 (CD2).wav
     Peak level 99.9 %
     Extraction speed 3.9 X
     Range quality 100.0 %
     Test CRC F297B2A2
     Copy CRC F297B2A2
     Copy OK
No errors occurred
AccurateRip summary
Track  1  accurately ripped (confidence 1)  [CD3FE33E]  (AR v1)
Track  2  accurately ripped (confidence 1)  [7D8E4AA1]  (AR v1)
Track  3  accurately ripped (confidence 1)  [1E5FC4C9]  (AR v1)
Track  4  accurately ripped (confidence 1)  [4176B4B3]  (AR v1)
Track  5  accurately ripped (confidence 1)  [DC58DF34]  (AR v1)
Track  6  accurately ripped (confidence 1)  [45E3CE95]  (AR v1)
Track  7  accurately ripped (confidence 1)  [FCEF0926]  (AR v1)
Track  8  accurately ripped (confidence 1)  [77E1CDE0]  (AR v1)
Track  9  accurately ripped (confidence 1)  [EB83091E]  (AR v1)
Track 10  accurately ripped (confidence 1)  [77FC4D7B]  (AR v1)
Track 11  accurately ripped (confidence 1)  [B3468D9C]  (AR v1)
Track 12  accurately ripped (confidence 1)  [FAA4727B]  (AR v1)
Track 13  accurately ripped (confidence 1)  [AF420D37]  (AR v1)
Track 14  accurately ripped (confidence 1)  [45DDFC70]  (AR v1)
Track 15  accurately ripped (confidence 1)  [5E528789]  (AR v1)
Track 16  accurately ripped (confidence 1)  [6FAFA4B0]  (AR v1)
Track 17  accurately ripped (confidence 1)  [B640B283]  (AR v1)
Track 18  accurately ripped (confidence 1)  [8DD0AFAF]  (AR v1)
Track 19  accurately ripped (confidence 1)  [80129FCE]  (AR v1)
Track 20  accurately ripped (confidence 1)  [78384D72]  (AR v1)
All tracks accurately ripped
End of status report
==== Log checksum 61579D3FC8D60B86A5C946DD0337A687EFCCC762667754A037D4AAE9D5CAE9DE ====
#777Год издания: 2011
Номер по каталогу: UP 1148 / INDIGO 95771-2
#777Продолжительность: 1:18:19.70
Треклист:
01. Ulterior - Sister Speed [3:32]
02. Sleepmask - Collusion [3:56]
03. Principe Valiente - The Night (Darkness Before Dawn Edit) [4:00]
04. Lotus Feed - King For Two Days (Single Version) [4:23]
05. Escape With Romeo - Why Don't You Call Me? [4:13]
06. Louis Pavlou - Break It [3:58]
07. Mephisto Walz - Alexandria (Extended) [3:41]
08. Bloody Dead And Sexy - Liquid Grey [4:13]
09. The Deep Eynde - Love In Shadows (Darkness Before Dawn Remix) [4:32]
10. The Readership Hostile - Forgive And Forget [2:56]
11. Snake Dance - Fall From Grace [3:52]
12. New Days Delay - Automotiv [2:55]
13. Lebanon Hanover - Die World [4:32]
14. Contre Jour - Hourglass [4:40]
15. Ikon - Subversion (2010 Remix) [4:02]
16. The Eternal Fall - My Blood [3:27]
17. Dream Affair - Endless Days [3:04]
18. Murder At The Registry - The Worst Date [3:14]
19. Sweet William - Follow Me (2011) [3:36]
20. Merciful Nuns - The Eternal [5:28]
Код:
Exact Audio Copy V1.0 beta 3 from 29. August 2011
EAC extraction logfile from 19. February 2012, 15:14
Various / Darkness Before Dawn Vol.3 (CD1)
Used drive  : PLEXTOR BDDVDR PX-B320SA   Adapter: 0  ID: 2
Read mode               : Secure
Utilize accurate stream : Yes
Defeat audio cache      : Yes
Make use of C2 pointers : No
Read offset correction                      : 6
Overread into Lead-In and Lead-Out          : No
Fill up missing offset samples with silence : Yes
Delete leading and trailing silent blocks   : No
Null samples used in CRC calculations       : Yes
Used interface                              : Native Win32 interface for Win NT & 2000
Used output format              : User Defined Encoder
Selected bitrate                : 128 kBit/s
Quality                         : High
Add ID3 tag                     : No
Command line compressor         : C:\Program Files (x86)\FLAC\flac.exe
Additional command line options : -V -8 -T "Date=%year%" -T "Genre=%genre%" %source%
TOC of the extracted CD
     Track |   Start  |  Length  | Start sector | End sector
    ---------------------------------------------------------
        1  |  0:00.00 |  3:32.38 |         0    |    15937
        2  |  3:32.38 |  3:56.45 |     15938    |    33682
        3  |  7:29.08 |  4:00.26 |     33683    |    51708
        4  | 11:29.34 |  4:23.39 |     51709    |    71472
        5  | 15:52.73 |  4:13.05 |     71473    |    90452
        6  | 20:06.03 |  3:58.42 |     90453    |   108344
        7  | 24:04.45 |  3:41.40 |    108345    |   124959
        8  | 27:46.10 |  4:13.34 |    124960    |   143968
        9  | 31:59.44 |  4:32.07 |    143969    |   164375
       10  | 36:31.51 |  2:56.40 |    164376    |   177615
       11  | 39:28.16 |  3:52.22 |    177616    |   195037
       12  | 43:20.38 |  2:54.67 |    195038    |   208154
       13  | 46:15.30 |  4:32.13 |    208155    |   228567
       14  | 50:47.43 |  4:40.23 |    228568    |   249590
       15  | 55:27.66 |  4:02.37 |    249591    |   267777
       16  | 59:30.28 |  3:27.25 |    267778    |   283327
       17  | 62:57.53 |  3:04.02 |    283328    |   297129
       18  | 66:01.55 |  3:13.68 |    297130    |   311672
       19  | 69:15.48 |  3:36.20 |    311673    |   327892
       20  | 72:51.68 |  5:28.02 |    327893    |   352494
Range status and errors
Selected range
     Filename D:\Various - Darkness Before Dawn Volume 3 (2011)\CD1 DARKNESS\Various - Darkness Before Dawn Vol.3 (CD1).wav
     Peak level 100.0 %
     Extraction speed 8.6 X
     Range quality 100.0 %
     Test CRC 0648F595
     Copy CRC 0648F595
     Copy OK
No errors occurred
AccurateRip summary
Track  1  accurately ripped (confidence 1)  [4B4D6883]  (AR v1)
Track  2  accurately ripped (confidence 1)  [3C725CAE]  (AR v1)
Track  3  accurately ripped (confidence 1)  [978223C0]  (AR v1)
Track  4  accurately ripped (confidence 1)  [F3ACC15A]  (AR v1)
Track  5  accurately ripped (confidence 1)  [A33A08F4]  (AR v1)
Track  6  accurately ripped (confidence 1)  [CBBCEF98]  (AR v1)
Track  7  accurately ripped (confidence 1)  [EA3FE4C4]  (AR v1)
Track  8  accurately ripped (confidence 1)  [E6E5C289]  (AR v1)
Track  9  accurately ripped (confidence 1)  [8300CD22]  (AR v1)
Track 10  accurately ripped (confidence 1)  [9A4EAF65]  (AR v1)
Track 11  accurately ripped (confidence 1)  [2BB55AA1]  (AR v1)
Track 12  accurately ripped (confidence 1)  [782F5F2D]  (AR v1)
Track 13  accurately ripped (confidence 1)  [43DE5AEF]  (AR v1)
Track 14  accurately ripped (confidence 1)  [E5F0F9F5]  (AR v1)
Track 15  accurately ripped (confidence 1)  [88270834]  (AR v1)
Track 16  accurately ripped (confidence 1)  [42FCC0D3]  (AR v1)
Track 17  accurately ripped (confidence 1)  [FB9A7FC5]  (AR v1)
Track 18  accurately ripped (confidence 1)  [0BA22DF5]  (AR v1)
Track 19  accurately ripped (confidence 1)  [8A846EBC]  (AR v1)
Track 20  accurately ripped (confidence 1)  [7CA6ABC7]  (AR v1)
All tracks accurately ripped
End of status report
==== Log checksum 336C6C562EF4C85DDA2A40F16D2A0ADFF129629ABDD3643EA444E64BC3A27392 ====
#777Продолжительность: 1:16:49.66
Треклист:
01. Light Asyslum - Dark Allies (Radio Edit) [5:10]
02. Agent Side Grinder - Die To Live (Darkness Before Dawn Edit) [4:26]
03. The KVB - In My Head [4:49]
04. Velvet Condom - Samt und Stein [2:50]
05. Sonnenbrandt - Dancer [3:37]
06. Automelodi - Schema Corporel [4:28]
07. Brigade Rosse - Leben In Schwarzweiss (Version) [3:41]
08. The Rorschach Garden - Thyssen Steel [3:42]
09. The Present Moment - Feast On Fire (Original Demo) [4:37]
10. Daybed - Lack Of Light (Radio Edit) [4:14]
11. Digital Leather - Slut (Cold Blood And Shit Remix) [2:48]
12. Devon Disaster - Little Girl (Darkness Before Dawn Remix) [3:27]
13. Hemendex - Made Of Plastic (Radio Version) [4:19]
14. Squishy Squid - Christkind (Remix) [3:22]
15. goJA moon ROCKAH - Heavy Metal Computer (The Rorschach Garden Remix) [3:46]
16. Silent Signals - The Attack Of The Killer Bugs [3:15]
17. Gertrud Stein - Zusammen [3:44]
18. Akustikkoppler - Nichtraucher [2:53]
19. Bloodygrave & Die Lust! - Siamesische Zwillinge [3:19]
20. Cosmic Hula Radiators - Gefuhlschaos im Bauch [4:16]
Код:
Exact Audio Copy V1.0 beta 3 from 29. August 2011
EAC extraction logfile from 19. February 2012, 15:51
Various / Darkness Before Dawn Vol.3 (CD2)
Used drive  : PLEXTOR BDDVDR PX-B320SA   Adapter: 0  ID: 2
Read mode               : Secure
Utilize accurate stream : Yes
Defeat audio cache      : Yes
Make use of C2 pointers : No
Read offset correction                      : 6
Overread into Lead-In and Lead-Out          : No
Fill up missing offset samples with silence : Yes
Delete leading and trailing silent blocks   : No
Null samples used in CRC calculations       : Yes
Used interface                              : Native Win32 interface for Win NT & 2000
Used output format              : User Defined Encoder
Selected bitrate                : 128 kBit/s
Quality                         : High
Add ID3 tag                     : No
Command line compressor         : C:\Program Files (x86)\FLAC\flac.exe
Additional command line options : -V -8 -T "Date=%year%" -T "Genre=%genre%" %source%
TOC of the extracted CD
     Track |   Start  |  Length  | Start sector | End sector
    ---------------------------------------------------------
        1  |  0:00.00 |  5:10.39 |         0    |    23288
        2  |  5:10.39 |  4:26.38 |     23289    |    43276
        3  |  9:37.02 |  4:49.40 |     43277    |    64991
        4  | 14:26.42 |  2:50.03 |     64992    |    77744
        5  | 17:16.45 |  3:37.40 |     77745    |    94059
        6  | 20:54.10 |  4:28.45 |     94060    |   114204
        7  | 25:22.55 |  3:41.38 |    114205    |   130817
        8  | 29:04.18 |  3:42.37 |    130818    |   147504
        9  | 32:46.55 |  4:37.13 |    147505    |   168292
       10  | 37:23.68 |  4:14.46 |    168293    |   187388
       11  | 41:38.39 |  2:48.49 |    187389    |   200037
       12  | 44:27.13 |  3:26.70 |    200038    |   215557
       13  | 47:54.08 |  4:19.44 |    215558    |   235026
       14  | 52:13.52 |  3:22.09 |    235027    |   250185
       15  | 55:35.61 |  3:46.38 |    250186    |   267173
       16  | 59:22.24 |  3:15.01 |    267174    |   281799
       17  | 62:37.25 |  3:44.43 |    281800    |   298642
       18  | 66:21.68 |  2:53.16 |    298643    |   311633
       19  | 69:15.09 |  3:18.55 |    311634    |   326538
       20  | 72:33.64 |  4:16.02 |    326539    |   345740
Range status and errors
Selected range
     Filename D:\Various - Darkness Before Dawn Volume 3 (2011)\CD2 DAWN\Various - Darkness Before Dawn Vol.3 (CD2).wav
     Peak level 100.0 %
     Extraction speed 3.9 X
     Range quality 100.0 %
     Test CRC A28984A9
     Copy CRC A28984A9
     Copy OK
No errors occurred
AccurateRip summary
Track  1  accurately ripped (confidence 1)  [4E6087BD]  (AR v1)
Track  2  accurately ripped (confidence 1)  [CB5705AD]  (AR v1)
Track  3  accurately ripped (confidence 1)  [ADF50E0D]  (AR v1)
Track  4  accurately ripped (confidence 1)  [D640E2E7]  (AR v1)
Track  5  accurately ripped (confidence 1)  [22B27A16]  (AR v1)
Track  6  accurately ripped (confidence 1)  [36E94DB9]  (AR v1)
Track  7  accurately ripped (confidence 1)  [1624E91A]  (AR v1)
Track  8  accurately ripped (confidence 1)  [8CCBEEE5]  (AR v1)
Track  9  accurately ripped (confidence 1)  [3F25F0BF]  (AR v1)
Track 10  accurately ripped (confidence 1)  [881182A8]  (AR v1)
Track 11  accurately ripped (confidence 1)  [4AD834AD]  (AR v1)
Track 12  accurately ripped (confidence 1)  [77C4D86A]  (AR v1)
Track 13  accurately ripped (confidence 1)  [DB55A22A]  (AR v1)
Track 14  accurately ripped (confidence 1)  [293DD8BD]  (AR v1)
Track 15  accurately ripped (confidence 1)  [43E53128]  (AR v1)
Track 16  accurately ripped (confidence 1)  [47810247]  (AR v1)
Track 17  accurately ripped (confidence 1)  [18D806E6]  (AR v1)
Track 18  accurately ripped (confidence 1)  [799CD1BC]  (AR v1)
Track 19  accurately ripped (confidence 1)  [63A1BA83]  (AR v1)
Track 20  accurately ripped (confidence 1)  [7F9A5186]  (AR v1)
All tracks accurately ripped
End of status report
==== Log checksum 664A0BDF4D376D734485AB9652C503984B2355B38044786FB110792FB7CDADD9 ====
Правила, инструкции, FAQ!!!
Торрент  Добавлен [26 июн 2020, 17:59] Скачать торрент Магнет ссылка
Скачать торрент
[ Размер 26.65 КБ / Просмотров 11 ]

Статус
Проверен 
 
Размер  3.77 ГБ
Приватный: Нет (DHT включён)
.torrent скачан  0
 


     Отправить личное сообщение
   
Страница 1 из 1
Показать сообщения за:  Поле сортировки  
Начать новую тему Ответить на тему


Сейчас этот форум просматривают: нет зарегистрированных пользователей и гости: 0


Вы не можете начинать темы
Вы не можете отвечать на сообщения
Вы не можете редактировать свои сообщения
Вы не можете удалять свои сообщения
Вы не можете добавлять вложения

Перейти:  
cron