Начать новую тему Ответить на тему
Статистика раздачи
Размер: 493.79 МБ | Добавлен: 26 июн 2020, 17:01 | Скачали: 0
Сидеров: 0  [0 байт/сек]    Личеров: 0  [0 байт/сек]
Пред. тема | След. тема 

Автор
Сообщение

СообщениеДобавлено: 26 июн 2020, 17:01 

Ответить с цитатой 

Various Artist - Dark Summer Volume 2 (Zillo)
Жанр: Electronic/Rock
Год выпуска диска: 2005
Производитель диска: Germany
Аудио кодек: FLAC
Тип рипа: image+.cue
Битрейт аудио: lossless
Продолжительность: 1:09:50
Трэклист:
[04:39] 01. VNV Nation / Chrome
[05:28] 02. Skinny Puppy / Pro-Test
[03:56] 03. The Klinik / Sick In Your Mind (Live)
[04:43] 04. Mesh / You Didn't Want Me (Live)
[04:47] 05. Combichrist / Feed Your Anger
[05:58] 06. Flesh Field / Reflect The Enemy
[04:20] 07. Cephalgy / Engel Sterben Nie
[03:31] 08. Neon Electronics / Shadowplayer
[04:07] 09. Trisomie 21 / Red Or Green
[04:58] 10. Staubkind / Keine Sonne (Club Electro Mix)
[03:38] 11. Scream Silence / Creed
[04:05] 12. Leaves' Eyes / Farewell Proud Men
[03:57] 13. Schandmaul / Walpurgisnacht (Live)
[03:34] 14. Faun / Satyros
[03:58] 15. In Mitra Medusa Inri / Red Bursted Veins
[04:06] 16. Limbogott / Deep (Edit Version)
Доп. информация: здесь
Скачать этот диск в МР3 можно здесь.
Код:
Exact Audio Copy V0.99 prebeta 4 from 23. January 2008
EAC extraction logfile from 16. March 2009, 17:22
Zillo / Dark Summer Volume 2
Used drive  : _NEC    DVD_RW ND-4550A   Adapter: 0  ID: 0
Read mode               : Secure
Utilize accurate stream : Yes
Defeat audio cache      : Yes
Make use of C2 pointers : No
Read offset correction                      : 48
Overread into Lead-In and Lead-Out          : No
Fill up missing offset samples with silence : Yes
Delete leading and trailing silent blocks   : No
Null samples used in CRC calculations       : Yes
Used interface                              : Installed external ASPI interface
Used output format : Internal WAV Routines
Sample format      : 44.100 Hz; 16 Bit; Stereo
TOC of the extracted CD
     Track |   Start  |  Length  | Start sector | End sector
    ---------------------------------------------------------
        1  |  0:00.00 |  4:39.08 |         0    |    20932
        2  |  4:39.08 |  5:28.23 |     20933    |    45555
        3  | 10:07.31 |  3:56.06 |     45556    |    63261
        4  | 14:03.37 |  4:43.12 |     63262    |    84498
        5  | 18:46.49 |  4:47.00 |     84499    |   106023
        6  | 23:33.49 |  5:58.00 |    106024    |   132873
        7  | 29:31.49 |  4:20.21 |    132874    |   152394
        8  | 33:51.70 |  3:31.38 |    152395    |   168257
        9  | 37:23.33 |  4:07.38 |    168258    |   186820
       10  | 41:30.71 |  4:58.59 |    186821    |   209229
       11  | 46:29.55 |  3:38.28 |    209230    |   225607
       12  | 50:08.08 |  4:05.37 |    225608    |   244019
       13  | 54:13.45 |  3:57.04 |    244020    |   261798
       14  | 58:10.49 |  3:34.71 |    261799    |   277919
       15  | 61:45.45 |  3:58.02 |    277920    |   295771
       16  | 65:43.47 |  4:06.39 |    295772    |   314260
Range status and errors
Selected range
     Filename D:\a r c h i v e\ZILLO DARK SUMMER VOL 2 [FLAC]\Dark Summer Volume 2.wav
     Peak level 100.0 %
     Range quality 99.9 %
     Copy CRC 717F7ED1
     Copy OK
No errors occurred
End of status report
Правила, инструкции, FAQ!!!
Торрент  Добавлен [26 июн 2020, 17:01] Скачать торрент Магнет ссылка
Скачать торрент
[ Размер 10.42 КБ / Просмотров 3 ]

Статус
Проверен 
 
Размер  493.79 МБ
Приватный: Нет (DHT включён)
.torrent скачан  0
 


     Отправить личное сообщение
   
Страница 1 из 1
Показать сообщения за:  Поле сортировки  
Начать новую тему Ответить на тему


Сейчас этот форум просматривают: нет зарегистрированных пользователей и гости: 0


Вы не можете начинать темы
Вы не можете отвечать на сообщения
Вы не можете редактировать свои сообщения
Вы не можете удалять свои сообщения
Вы не можете добавлять вложения

Перейти:  
cron