Начать новую тему Ответить на тему
Статистика раздачи
Размер: 271.95 МБ | Добавлен: 26 мар 2019, 19:28 | Скачали: 0
Сидеров: 1  [0 байт/сек]    Личеров: 0  [0 байт/сек]
Пред. тема | След. тема 

Автор
Сообщение

СообщениеДобавлено: 26 мар 2019, 19:28 

Ответить с цитатой 

Polarkreis 18 - The Colour Of Snow
Жанр: Electronic, Pop, Rock
Год выпуска диска: 2008
Производитель диска: Германия
Аудио кодек: FLAC
Тип рипа: tracks+.cue
Битрейт аудио: lossless
Продолжительность: 40:59
Трэклист:
[03:22] 01. Tourist
[04:00] 02. Allein Allein
[04:42] 03. Prisoner
[02:08] 04. Untitled Picture
[03:42] 05. The Colour Of Snow
[03:52] 06. 130/70
[03:49] 07. Rainhouse
[05:13] 08. River Loves The Ocean
[04:47] 09. Name On My ID
[05:19] 10. Happy Go Lucky
Код:
EAC extraction logfile from 17. October 2008, 12:10 for CD
Polarkreis 18 / The Colour Of Snow
Used drive  : Optiarc DVD+-RW AD-7640A   Adapter: 1  ID: 0
Read mode   : Secure with C2, accurate stream, NO disable cache
Read offset correction : 6
Overread into Lead-In and Lead-Out : No
Used output format : C:\Program Files\Exact Audio Copy\flac.exe   (User Defined Encoder)
                     192 kBit/s
                     Additional command line options : -8 -A tukey(0.25) -A gauss(0.1875) -b 4096 -V -T "artist=%a" -T "title=%t" -T "album=%g" -T "date=%y" -T "tracknumber=%n" -T "genre=%m" %s
Other options      :
    Fill up missing offset samples with silence : Yes
    Delete leading and trailing silent blocks : No
    Native Win32 interface for Win NT & 2000
Track  1
     Filename C:\Polarkreis 18 - The Colour Of Snow FLAC\01 - Polarkreis 18 - Tourist.wav
     Pre-gap length  0:01:05.45
     Peak level 97.7 %
     Track quality 100.0 %
     Test CRC C2075EC2
     Copy CRC C2075EC2
     Copy OK
Track  2
     Filename C:\Polarkreis 18 - The Colour Of Snow FLAC\02 - Polarkreis 18 - Allein Allein.wav
     Peak level 99.9 %
     Track quality 100.0 %
     Test CRC A2DCE8B8
     Copy CRC A2DCE8B8
     Copy OK
Track  3
     Filename C:\Polarkreis 18 - The Colour Of Snow FLAC\03 - Polarkreis 18 - Prisoner.wav
     Peak level 99.9 %
     Track quality 100.0 %
     Test CRC F8F9BA37
     Copy CRC F8F9BA37
     Copy OK
Track  4
     Filename C:\Polarkreis 18 - The Colour Of Snow FLAC\04 - Polarkreis 18 - Untitled Picture.wav
     Peak level 98.0 %
     Track quality 100.0 %
     Test CRC C2BE19A7
     Copy CRC C2BE19A7
     Copy OK
Track  5
     Filename C:\Polarkreis 18 - The Colour Of Snow FLAC\05 - Polarkreis 18 - The Colour Of Snow.wav
     Peak level 98.0 %
     Track quality 100.0 %
     Test CRC CC2CFDAD
     Copy CRC CC2CFDAD
     Copy OK
Track  6
     Filename C:\Polarkreis 18 - The Colour Of Snow FLAC\06 - Polarkreis 18 - 130,70.wav
     Peak level 95.5 %
     Track quality 100.0 %
     Test CRC 3AED6737
     Copy CRC 3AED6737
     Copy OK
Track  7
     Filename C:\Polarkreis 18 - The Colour Of Snow FLAC\07 - Polarkreis 18 - Rainhouse.wav
     Peak level 98.0 %
     Track quality 100.0 %
     Test CRC 941E489A
     Copy CRC 941E489A
     Copy OK
Track  8
     Filename C:\Polarkreis 18 - The Colour Of Snow FLAC\08 - Polarkreis 18 - River Loves The Ocean.wav
     Peak level 98.0 %
     Track quality 100.0 %
     Test CRC 3F316528
     Copy CRC 3F316528
     Copy OK
Track  9
     Filename C:\Polarkreis 18 - The Colour Of Snow FLAC\09 - Polarkreis 18 - Name On My ID.wav
     Peak level 98.0 %
     Track quality 100.0 %
     Test CRC BDF785D1
     Copy CRC BDF785D1
     Copy OK
Track 10
     Filename C:\Polarkreis 18 - The Colour Of Snow FLAC\10 - Polarkreis 18 - Happy Go Lucky.wav
     Peak level 95.5 %
     Track quality 100.0 %
     Test CRC E3D0407A
     Copy CRC E3D0407A
     Copy OK
No errors occured
End of status report
Код:
AUDIOCHECKER v1.2 - by Dester - opdester@freemail.hu
~~~~~~~~~~~~~~~~~
01 -===- F:\Polarkreis 18 - The Colour Of Snow FLAC waffles\01 - Polarkreis 18 - Tourist.flac
  Extracted successfully
  Conclusion: This track looks like CDDA with probability 100%
02 -===- F:\Polarkreis 18 - The Colour Of Snow FLAC waffles\02 - Polarkreis 18 - Allein Allein.flac
  Extracted successfully
  Conclusion: This track looks like CDDA with probability 100%
03 -===- F:\Polarkreis 18 - The Colour Of Snow FLAC waffles\03 - Polarkreis 18 - Prisoner.flac
  Extracted successfully
  Conclusion: This track looks like CDDA with probability 100%
04 -===- F:\Polarkreis 18 - The Colour Of Snow FLAC waffles\04 - Polarkreis 18 - Untitled Picture.flac
  Extracted successfully
  Conclusion: This track looks like CDDA with probability 100%
05 -===- F:\Polarkreis 18 - The Colour Of Snow FLAC waffles\05 - Polarkreis 18 - The Colour Of Snow.flac
  Extracted successfully
  Conclusion: This track looks like CDDA with probability 100%
06 -===- F:\Polarkreis 18 - The Colour Of Snow FLAC waffles\06 - Polarkreis 18 - 130,70.flac
  Extracted successfully
  Conclusion: This track looks like CDDA with probability 100%
07 -===- F:\Polarkreis 18 - The Colour Of Snow FLAC waffles\07 - Polarkreis 18 - Rainhouse.flac
  Extracted successfully
  Conclusion: This track looks like CDDA with probability 100%
08 -===- F:\Polarkreis 18 - The Colour Of Snow FLAC waffles\08 - Polarkreis 18 - River Loves The Ocean.flac
  Extracted successfully
  Conclusion: This track looks like CDDA with probability 100%
09 -===- F:\Polarkreis 18 - The Colour Of Snow FLAC waffles\09 - Polarkreis 18 - Name On My ID.flac
  Extracted successfully
  Conclusion: This track looks like MPEG with probability 95%
10 -===- F:\Polarkreis 18 - The Colour Of Snow FLAC waffles\10 - Polarkreis 18 - Happy Go Lucky.flac
  Extracted successfully
  Conclusion: This track looks like CDDA with probability 100%

Доп. информация:
http://www.discogs.com/Polarkreis-18-The-Colour-Of-Snow/release/1571617
Извиняюсь если ошибся разделом (что-то мне подсказывает что оно так и есть, пихнул сюда основываясь на этой раздаче http://rutracker.org/forum/viewtopic.php?t=1181040 )
Лично я считаю что данной группе место в электронике
Правила, инструкции, FAQ!!!
Торрент  Добавлен [26 мар 2019, 19:28] Скачать торрент Магнет ссылка
Скачать торрент
[ Размер 11.95 КБ / Просмотров 5 ]

Статус
Проверен 
 
Размер  271.95 МБ
Приватный: Нет (DHT включён)
.torrent скачан  0
 


     Отправить личное сообщение
   
Страница 1 из 1
Показать сообщения за:  Поле сортировки  
Начать новую тему Ответить на тему


Сейчас этот форум просматривают: нет зарегистрированных пользователей и гости: 0


Вы не можете начинать темы
Вы не можете отвечать на сообщения
Вы не можете редактировать свои сообщения
Вы не можете удалять свои сообщения
Вы не можете добавлять вложения

Перейти:  
cron