Начать новую тему Ответить на тему
Статистика раздачи
Размер: 292.18 МБ | Добавлен: 26 июн 2020, 18:53 | Скачали: 0
Сидеров: 0  [0 байт/сек]    Личеров: 0  [0 байт/сек]
Пред. тема | След. тема 

Автор
Сообщение

СообщениеДобавлено: 26 июн 2020, 18:53 

Ответить с цитатой 

Attrition - In The Realm Of The Hungry Ghosts
Жанр: Electronic/Modern Classical/Gothic
Год выпуска диска: 1995
Производитель диска: US
Аудио кодек: FLAC
Тип рипа: image+.cue
Битрейт аудио: lossless
Продолжительность: 52:55
Трэклист:
01 Vigil
02 Into The Waves
03 In Your Hand
04 Surge And Run
05 Marianne's Dream )
06 Dreamsleep
07 The Last Refuge
08 The Beginning Of The End
09 Questions
10 Which Hand?
11 A Forgotten Dream
12 A'dam And Eva
Доп. информация:
Label: Relic
Catalog#: R 3
All tracks remixed January/February 1986. Digital remastered in 1994. The LP was originally released in 1986 on Third Mind Records and reissued in 1989.
Tracks 9-12 are from the 'Future Tense' compilation, released on TMR in 1987. Tracks 1-8 are from the period 1982-84.
Источник: свой оригинал
Еще альбомы:
Attrition - Kissing A Virtual AngelAttrition - ...This Death HouseAttrition - 3 Arms And A Dead Cert Attrition - EphemeraAttrition - The Attrition Of Reason
Код:
Exact Audio Copy V0.99 prebeta 4 from 23. January 2008
EAC extraction logfile from 18. April 2009, 12:25
Attrition / in the realm of the hungry ghosts
Used drive  : PLEXTOR DVD-ROM PX-116A2   Adapter: 0  ID: 1
Read mode               : Secure
Utilize accurate stream : Yes
Defeat audio cache      : Yes
Make use of C2 pointers : No
Read offset correction                      : 102
Overread into Lead-In and Lead-Out          : No
Fill up missing offset samples with silence : Yes
Delete leading and trailing silent blocks   : No
Null samples used in CRC calculations       : Yes
Used interface                              : Installed external ASPI interface
Used output format              : User Defined Encoder
Selected bitrate                : 1024 kBit/s
Quality                         : High
Add ID3 tag                     : No
Command line compressor         : C:\Program Files\FLAC\flac.exe
Additional command line options : -8 -V -T "ARTIST=%a" -T "TITLE=%t" -T "ALBUM=%g" -T "DATE=%y" -T "TRACKNUMBER=%n" -T "GENRE=%m" -T "COMMENT=EAC FLAC -8" %s
TOC of the extracted CD
     Track |   Start  |  Length  | Start sector | End sector
    ---------------------------------------------------------
        1  |  0:00.00 |  3:12.63 |         0    |    14462
        2  |  3:12.63 |  5:34.67 |     14463    |    39579
        3  |  8:47.55 |  3:23.13 |     39580    |    54817
        4  | 12:10.68 |  7:58.20 |     54818    |    90687
        5  | 20:09.13 |  5:10.17 |     90688    |   113954
        6  | 25:19.30 |  3:54.23 |    113955    |   131527
        7  | 29:13.53 |  5:51.22 |    131528    |   157874
        8  | 35:05.00 |  6:04.33 |    157875    |   185207
        9  | 41:09.33 |  3:00.27 |    185208    |   198734
       10  | 44:09.60 |  3:17.70 |    198735    |   213579
       11  | 47:27.55 |  1:31.73 |    213580    |   220477
       12  | 48:59.53 |  3:25.32 |    220478    |   235884
Range status and errors
Selected range
     Filename D:\torrent1\Attrition - in the realm of the hungry ghosts\Attrition - in the realm of the hungry ghosts.wav
     Peak level 100.0 %
     Range quality 100.0 %
     Test CRC AEC1F321
     Copy CRC AEC1F321
     Copy OK
No errors occurred
AccurateRip summary
Track  1  accurately ripped (confidence 2)  [8A76C3CA]
Track  2  accurately ripped (confidence 2)  [B20699F9]
Track  3  accurately ripped (confidence 2)  [7645E843]
Track  4  accurately ripped (confidence 2)  [F2775D2F]
Track  5  accurately ripped (confidence 2)  [750D8050]
Track  6  accurately ripped (confidence 2)  [6EE2A6D3]
Track  7  accurately ripped (confidence 2)  [4DE28C61]
Track  8  accurately ripped (confidence 2)  [F4EA7350]
Track  9  accurately ripped (confidence 2)  [D9848EAF]
Track 10  accurately ripped (confidence 2)  [F718AC9B]
Track 11  accurately ripped (confidence 2)  [321A1789]
Track 12  accurately ripped (confidence 2)  [5A893C81]
All tracks accurately ripped
End of status report
Правила, инструкции, FAQ!!!
Торрент  Добавлен [26 июн 2020, 18:53] Скачать торрент Магнет ссылка
Скачать торрент
[ Размер 12.14 КБ / Просмотров 6 ]

Статус
Проверен 
 
Размер  292.18 МБ
Приватный: Нет (DHT включён)
.torrent скачан  0
 


     Отправить личное сообщение
   
Страница 1 из 1
Показать сообщения за:  Поле сортировки  
Начать новую тему Ответить на тему


Сейчас этот форум просматривают: нет зарегистрированных пользователей и гости: 0


Вы не можете начинать темы
Вы не можете отвечать на сообщения
Вы не можете редактировать свои сообщения
Вы не можете удалять свои сообщения
Вы не можете добавлять вложения

Перейти:  
cron